<?xml version="1.0" standalone="no"?>
<!DOCTYPE svg PUBLIC "-//W3C//DTD SVG 1.1//EN" "http://www.w3.org/Graphics/SVG/1.1/DTD/svg11.dtd" >
<svg>
<metadata>
Created by FontForge 20090622 at Fri Dec  8 09:51:27 2017
 By deploy user
Copyright &#194;&#169; 2016 by Chris Simpson.
</metadata>
<defs>
<font id="Metropolis-Bold" horiz-adv-x="660" >
  <font-face 
    font-family="Metropolis"
    font-weight="700"
    font-stretch="normal"
    units-per-em="1000"
    panose-1="0 0 8 0 0 0 0 0 0 0"
    ascent="795"
    descent="-205"
    x-height="517"
    cap-height="687"
    bbox="-215 -291 1182 978"
    underline-thickness="20"
    underline-position="-113"
    unicode-range="U+0020-U+2212"
  />
<missing-glyph horiz-adv-x="500" 
d="M410 795v-1000h-317v1000h317zM333 728h-165v-33h65v-37h-66v-33h166v33h-66v37h66v33zM267 599h-100v-104h166v34h-66v70zM233 565v-36h-33v36h33zM333 468h-166v-33h66v-37h-66v-33h100v70h66v33zM333 408h-33v-66h-133v-34h166v100zM333 286h-100v-56h34v23h33v-47
h-100v80h-33v-113h166v113zM333 113h-166v-113h166v113zM300 80v-47h-100v47h100zM333 -23h-166v-33h70l-70 -47v-33h166v33h-102l70 47h32v33z" />
    <glyph glyph-name=".notdef" horiz-adv-x="500" 
d="M410 795v-1000h-317v1000h317zM333 728h-165v-33h65v-37h-66v-33h166v33h-66v37h66v33zM267 599h-100v-104h166v34h-66v70zM233 565v-36h-33v36h33zM333 468h-166v-33h66v-37h-66v-33h100v70h66v33zM333 408h-33v-66h-133v-34h166v100zM333 286h-100v-56h34v23h33v-47
h-100v80h-33v-113h166v113zM333 113h-166v-113h166v113zM300 80v-47h-100v47h100zM333 -23h-166v-33h70l-70 -47v-33h166v33h-102l70 47h32v33z" />
    <glyph glyph-name=".null" horiz-adv-x="0" 
 />
    <glyph glyph-name="nonmarkingreturn" horiz-adv-x="333" 
 />
    <glyph glyph-name="space" unicode=" " horiz-adv-x="279" 
 />
    <glyph glyph-name="exclam" unicode="!" horiz-adv-x="307" 
d="M106 242l-33 445h165l-33 -445h-99zM155 -12q-39 0 -66 27.5t-27 65.5q0 36 27 62.5t66 26.5q36 0 62.5 -26.5t26.5 -62.5q0 -38 -26 -65.5t-63 -27.5z" />
    <glyph glyph-name="quotedbl" unicode="&#x22;" horiz-adv-x="516" 
d="M109 394q-47 158 -47 221q0 32 22.5 55t53.5 23t53.5 -23t22.5 -55q0 -63 -47 -221h-58zM349 394q-47 158 -47 221q0 32 22.5 55t53.5 23t53.5 -23t22.5 -55q0 -63 -47 -221h-58z" />
    <glyph glyph-name="numbersign" unicode="#" horiz-adv-x="675" 
d="M618 421h-97l-39 -156h96l-25 -105h-98l-40 -160h-108l40 160h-115l-40 -160h-107l40 160h-94l26 105h95l39 156h-97l26 105h97l41 161h107l-41 -161h115l41 161h108l-41 -161h97zM374 265l39 156h-115l-39 -156h115z" />
    <glyph glyph-name="dollar" unicode="$" horiz-adv-x="633" 
d="M595 206q0 -92 -62 -150.5t-172 -66.5v-63h-97v66q-142 18 -241 110l85 101q75 -64 156 -82v166q-105 27 -158 70.5t-53 127.5q0 85 57.5 142.5t153.5 69.5v62h97v-63q123 -13 215 -92l-77 -106q-63 52 -138 69v-160q118 -27 176 -70.5t58 -130.5zM202 500q0 -46 62 -67
v136q-29 -7 -45.5 -26t-16.5 -43zM361 115q41 5 63 25.5t22 49.5q0 28 -19 44t-66 29v-148z" />
    <glyph glyph-name="percent" unicode="%" horiz-adv-x="837" 
d="M208 342q-75 0 -123 50t-48 125t48 126t124 51t123.5 -50.5t47.5 -125.5t-48 -125.5t-124 -50.5zM127 0l478 687h106l-478 -687h-106zM209 428q32 0 52.5 24.5t20.5 65.5q0 40 -21 64.5t-53 24.5t-52 -24.5t-20 -64.5t21 -65t52 -25zM628 -11q-76 0 -124 50.5t-48 125.5
t48.5 125.5t123.5 50.5q76 0 123.5 -51t47.5 -125q0 -75 -48.5 -125.5t-122.5 -50.5zM628 76q32 0 52.5 24.5t20.5 64.5t-21 65t-52 25q-33 0 -53.5 -24.5t-20.5 -65.5q0 -40 21 -64.5t53 -24.5z" />
    <glyph glyph-name="ampersand" unicode="&#x26;" horiz-adv-x="679" 
d="M652 38l-120 -54l-73 76q-89 -72 -200 -72q-101 0 -166 53.5t-65 145.5q0 67 35 113t114 81q-49 72 -49 140q0 72 57 123.5t138 51.5q84 0 139 -49.5t55 -124.5q0 -56 -36 -93t-121 -76l106 -118q40 58 67 126l106 -50q-49 -98 -95 -159zM325 591q-30 0 -51 -20t-21 -50
q0 -38 44 -93q52 21 73 40.5t21 52.5q0 30 -18.5 50t-47.5 20zM277 99q50 0 105 42q-75 79 -141 156q-68 -41 -68 -100q0 -44 30 -71t74 -27z" />
    <glyph glyph-name="quotesingle" unicode="'" horiz-adv-x="276" 
d="M109 394q-47 158 -47 221q0 32 22.5 55t53.5 23t53.5 -23t22.5 -55q0 -63 -47 -221h-58z" />
    <glyph glyph-name="parenleft" unicode="(" horiz-adv-x="383" 
d="M275 -170q-107 77 -165.5 190t-58.5 245q0 133 58.5 245.5t165.5 189.5l74 -78q-79 -82 -116 -166t-37 -191q0 -106 37 -190.5t116 -165.5z" />
    <glyph glyph-name="parenright" unicode=")" horiz-adv-x="383" 
d="M109 -170l-74 79q79 81 115.5 165.5t36.5 190.5q0 107 -36.5 191t-115.5 166l74 78q107 -77 165.5 -190t58.5 -245t-58.5 -245t-165.5 -190z" />
    <glyph glyph-name="asterisk" unicode="*" horiz-adv-x="398" 
d="M199 345q-16 0 -27 10.5t-11 24.5q0 21 9.5 62.5t11.5 52.5q-11 -9 -41 -37.5t-47 -38.5q-12 -7 -27 -2t-23 18q-7 14 -3.5 28.5t15.5 21.5q17 10 57.5 22t51.5 17q-11 5 -51.5 17t-57.5 22q-12 7 -15.5 21.5t3.5 28.5q8 14 23 19t27 -3q17 -10 47 -38.5t41 -37.5
q-2 12 -12 53t-10 62q0 14 11.5 24.5t27.5 10.5t27 -10.5t11 -24.5q0 -21 -10 -62t-12 -53q11 9 41 37.5t47 38.5q12 7 27 2t23 -18q7 -14 4 -28.5t-15 -21.5q-18 -10 -58 -22t-52 -17q12 -5 52 -17t58 -22q12 -7 15.5 -22t-4.5 -28q-8 -14 -23 -19t-27 3q-17 10 -47 38.5
t-41 37.5q2 -12 12 -53t10 -62q0 -14 -11 -24.5t-27 -10.5z" />
    <glyph glyph-name="plus" unicode="+" horiz-adv-x="603" 
d="M543 393v-119h-178v-182h-126v182h-179v119h179v182h126v-182h178z" />
    <glyph glyph-name="comma" unicode="," horiz-adv-x="293" 
d="M135 -146l-52 40q46 42 61 94q-36 0 -62 26.5t-26 63.5q0 38 26.5 65t63.5 27q42 0 68.5 -35t26.5 -90q0 -89 -106 -191z" />
    <glyph glyph-name="hyphen" unicode="-" horiz-adv-x="364" 
d="M45 213v124h274v-124h-274z" />
    <glyph glyph-name="period" unicode="." horiz-adv-x="290" 
d="M147 -12q-39 0 -66 27.5t-27 65.5q0 36 27 62.5t66 26.5q36 0 62.5 -26.5t26.5 -62.5q0 -38 -26 -65.5t-63 -27.5z" />
    <glyph glyph-name="slash" unicode="/" horiz-adv-x="462" 
d="M-24 -74l345 817h154l-345 -817h-154z" />
    <glyph glyph-name="zero" unicode="0" horiz-adv-x="706" 
d="M353 -12q-136 0 -222 99.5t-86 256.5q0 156 86 255.5t222 99.5t222.5 -99.5t86.5 -255.5q0 -157 -86.5 -256.5t-222.5 -99.5zM353 122q69 0 113 62.5t44 159.5t-43.5 159t-113.5 62q-69 0 -113 -62t-44 -159t44 -159.5t113 -62.5z" />
    <glyph glyph-name="one" unicode="1" horiz-adv-x="415" 
d="M190 0v518l-117 -73l-59 104l206 138h118v-687h-148z" />
    <glyph glyph-name="two" unicode="2" horiz-adv-x="611" 
d="M44 0v120l253 196q60 47 84 84t24 74q0 41 -30 66t-74 25q-88 0 -168 -91l-94 91q106 134 266 134q110 0 181 -61.5t71 -157.5q0 -71 -36 -128.5t-124 -121.5l-125 -97h291v-133h-519z" />
    <glyph glyph-name="three" unicode="3" horiz-adv-x="606" 
d="M302 -13q-176 0 -276 116l87 98q75 -81 182 -81q56 0 88 23t32 61q0 80 -134 79h-79v126l79 -1q57 0 88.5 20t31.5 57t-32 59.5t-83 22.5q-85 0 -162 -80l-85 90q101 122 261 122q115 0 183.5 -52.5t68.5 -135.5q0 -58 -35.5 -99.5t-93.5 -58.5q61 -14 102.5 -55.5
t41.5 -105.5q0 -90 -73 -147.5t-192 -57.5z" />
    <glyph glyph-name="four" unicode="4" horiz-adv-x="648" 
d="M374 0v140h-335l-14 114l318 432h179v-422h91v-124h-91v-140h-148zM180 264h194v266z" />
    <glyph glyph-name="five" unicode="5" horiz-adv-x="618" 
d="M302 -13q-160 0 -266 106l87 104q84 -81 180 -81q57 0 91 30t34 75t-34 72.5t-90 27.5q-74 0 -133 -45l-99 40l10 371h455v-133h-319l-4 -152q60 42 134 42q96 0 161.5 -58.5t65.5 -159.5q0 -109 -75 -174t-198 -65z" />
    <glyph glyph-name="six" unicode="6" horiz-adv-x="643" 
d="M366 444q98 0 165 -59.5t67 -158.5q0 -105 -74.5 -171.5t-188.5 -66.5q-145 0 -218.5 93.5t-73.5 250.5q0 162 87 264.5t228 102.5q119 0 211 -74l-70 -112q-67 56 -140 56q-66 0 -109.5 -51t-53.5 -139q68 65 170 65zM327 113q53 0 86 31.5t33 74.5q0 48 -35.5 76.5
t-87.5 28.5q-42 0 -75 -21.5t-48 -58.5q20 -131 127 -131z" />
    <glyph glyph-name="seven" unicode="7" horiz-adv-x="604" 
d="M114 0l273 554h-340v133h511v-111l-277 -576h-167z" />
    <glyph glyph-name="eight" unicode="8" horiz-adv-x="624" 
d="M312 -12q-118 0 -197 53t-79 143q0 59 36.5 103.5t98.5 67.5q-117 50 -117 157q0 87 75.5 137t182.5 50q108 0 183.5 -51t75.5 -136q0 -106 -118 -157q63 -25 99 -69t36 -102q0 -91 -79 -143.5t-197 -52.5zM312 406q44 3 78 27t34 60q0 35 -31.5 58.5t-80.5 23.5t-80 -23
t-31 -59q0 -37 33.5 -60.5t77.5 -26.5zM312 112q55 0 91 24.5t36 63.5q0 38 -39.5 63t-87.5 27q-48 -2 -87 -27t-39 -63q0 -39 35.5 -63.5t90.5 -24.5z" />
    <glyph glyph-name="nine" unicode="9" horiz-adv-x="643" 
d="M308 699q145 0 218.5 -93.5t73.5 -250.5q0 -162 -87 -264.5t-228 -102.5q-119 0 -211 74l70 112q67 -56 140 -56q66 0 109.5 51t53.5 139q-68 -65 -170 -65q-98 0 -165 59.5t-67 158.5q0 105 74.5 171.5t188.5 66.5zM320 363q42 0 75 21.5t48 58.5q-20 131 -127 131
q-53 0 -86 -31.5t-33 -74.5q0 -48 35.5 -76.5t87.5 -28.5z" />
    <glyph glyph-name="colon" unicode=":" horiz-adv-x="290" 
d="M147 349q-39 0 -66 27.5t-27 65.5q0 36 27 62.5t66 26.5q36 0 62.5 -26.5t26.5 -62.5q0 -38 -26 -65.5t-63 -27.5zM147 -12q-39 0 -66 27.5t-27 65.5q0 36 27 62.5t66 26.5q36 0 62.5 -26.5t26.5 -62.5q0 -38 -26 -65.5t-63 -27.5z" />
    <glyph glyph-name="semicolon" unicode=";" horiz-adv-x="293" 
d="M149 349q-39 0 -66 27.5t-27 65.5q0 36 27 62.5t66 26.5q36 0 62.5 -26.5t26.5 -62.5q0 -38 -26 -65.5t-63 -27.5zM135 -146l-52 40q46 42 61 94q-36 0 -62 26.5t-26 63.5q0 38 26.5 65t63.5 27q42 0 68.5 -35t26.5 -90q0 -89 -106 -191z" />
    <glyph glyph-name="less" unicode="&#x3c;" horiz-adv-x="593" 
d="M522 82l-467 204v115l467 204v-118l-351 -144l351 -142v-119z" />
    <glyph glyph-name="equal" unicode="=" horiz-adv-x="603" 
d="M60 392v119h483v-119h-483zM60 164v119h483v-119h-483z" />
    <glyph glyph-name="greater" unicode="&#x3e;" horiz-adv-x="593" 
d="M71 82v119l351 142l-351 144v118l467 -204v-115z" />
    <glyph glyph-name="question" unicode="?" horiz-adv-x="505" 
d="M169 236v164q69 3 113 28t44 61q0 33 -27.5 55.5t-72.5 22.5q-71 0 -126 -62l-84 86q96 108 235 108q99 0 162 -55.5t63 -140.5q0 -67 -50 -122t-127 -73v-72h-130zM234 -12q-39 0 -66 27.5t-27 65.5q0 36 27 62.5t66 26.5q36 0 62.5 -26.5t26.5 -62.5q0 -38 -26 -65.5
t-63 -27.5z" />
    <glyph glyph-name="at" unicode="@" horiz-adv-x="880" 
d="M425 -116q-161 0 -271.5 109.5t-110.5 266.5q0 170 124 293t296 123q157 0 265 -103t108 -245q0 -121 -61.5 -187.5t-140.5 -66.5q-99 0 -124 79q-61 -78 -148 -78q-75 0 -121.5 50.5t-46.5 130.5q0 101 68 175.5t156 74.5q89 0 132 -72l12 58l120 -9l-17.5 -90.5
l-15 -73t-10 -51t-6.5 -40.5t-2 -25q0 -26 14.5 -40.5t39.5 -14.5q44 0 76.5 46.5t32.5 133.5q0 129 -95 218.5t-238 89.5q-155 0 -266 -111t-111 -264q0 -142 98.5 -240t244.5 -98q113 0 214 61l20 -31q-108 -69 -236 -69zM405 176q48 0 81 37t38 94q5 45 -16 71.5
t-63 26.5q-53 0 -89.5 -41.5t-36.5 -97.5q0 -42 23.5 -66t62.5 -24z" />
    <glyph glyph-name="A" unicode="A" horiz-adv-x="751" 
d="M572 0l-44 108h-306l-44 -108h-165l280 687h165l280 -687h-166zM273 233h204l-102 251z" />
    <glyph glyph-name="B" unicode="B" horiz-adv-x="699" 
d="M74 0v687h348q92 0 150 -48.5t58 -123.5q0 -103 -96 -153q60 -27 93 -73t33 -103q0 -82 -63 -134t-162 -52h-361zM221 410h164q41 0 67.5 21.5t26.5 54.5q0 32 -26.5 53.5t-67.5 21.5h-164v-151zM221 126h187q44 0 72.5 23.5t28.5 60.5t-28.5 60.5t-72.5 23.5h-187v-168z
" />
    <glyph glyph-name="C" unicode="C" horiz-adv-x="696" 
d="M406 -12q-148 0 -256.5 105.5t-108.5 250.5t108.5 250t256.5 105q158 0 267 -115l-107 -96q-67 77 -160 77q-86 0 -149.5 -66t-63.5 -155q0 -90 63.5 -156t149.5 -66q93 0 160 77l107 -96q-51 -54 -121 -84.5t-146 -30.5z" />
    <glyph glyph-name="D" unicode="D" horiz-adv-x="761" 
d="M74 0v687h246q173 0 284 -96t111 -247t-111 -247.5t-284 -96.5h-246zM221 134h118q98 0 161 59t63 151t-63 150.5t-161 58.5h-118v-419z" />
    <glyph glyph-name="E" unicode="E" horiz-adv-x="641" 
d="M597 554h-381v-137h345v-133h-345v-151h381v-133h-529v687h529v-133z" />
    <glyph glyph-name="F" unicode="F" horiz-adv-x="634" 
d="M597 554h-381v-149h345v-133h-345v-272h-148v687h529v-133z" />
    <glyph glyph-name="G" unicode="G" horiz-adv-x="743" 
d="M383 271v115h304v-283q-52 -54 -126 -84.5t-152 -30.5q-149 0 -258.5 105.5t-109.5 250.5t109.5 250t258.5 105q78 0 152 -30.5t126 -84.5l-107 -96q-31 35 -77.5 56t-93.5 21q-88 0 -152 -66t-64 -155q0 -90 64 -156t152 -66q73 0 134 44v105h-160z" />
    <glyph glyph-name="H" unicode="H" horiz-adv-x="743" 
d="M528 687h147v-687h-147v284h-313v-284h-147v687h147v-270h313v270z" />
    <glyph glyph-name="I" unicode="I" horiz-adv-x="287" 
d="M70 0v687h148v-687h-148z" />
    <glyph glyph-name="J" unicode="J" horiz-adv-x="545" 
d="M242 -12q-66 0 -131 32t-99 82l98 96q16 -34 49 -55t68 -21q45 0 74.5 32t29.5 82v451h148v-463q0 -104 -66.5 -170t-170.5 -66z" />
    <glyph glyph-name="K" unicode="K" horiz-adv-x="699" 
d="M73 0v687h147v-315l278 315h179l-268 -298l287 -389h-179l-211 284l-86 -92v-192h-147z" />
    <glyph glyph-name="L" unicode="L" horiz-adv-x="580" 
d="M211 133h342v-133h-490v687h148v-554z" />
    <glyph glyph-name="M" unicode="M" horiz-adv-x="867" 
d="M74 0v687h147l213 -388l212 388h148v-687h-148v428l-212 -388l-213 388v-428h-147z" />
    <glyph glyph-name="N" unicode="N" horiz-adv-x="774" 
d="M74 0v687h147l331 -444v444h148v-687h-148l-331 444v-444h-147z" />
    <glyph glyph-name="O" unicode="O" horiz-adv-x="812" 
d="M406 -12q-148 0 -256.5 105.5t-108.5 250.5t108.5 250t256.5 105q149 0 257 -105t108 -250t-108 -250.5t-257 -105.5zM406 122q87 0 150.5 66t63.5 156q0 89 -63.5 155t-150.5 66q-86 0 -149.5 -66t-63.5 -155q0 -90 63.5 -156t149.5 -66z" />
    <glyph glyph-name="P" unicode="P" 
d="M68 0v687h309q112 0 185.5 -65t73.5 -167t-73.5 -167t-185.5 -65h-162v-223h-147zM215 358h146q55 0 89 26.5t34 70.5t-34 70.5t-89 26.5h-146v-194z" />
    <glyph glyph-name="Q" unicode="Q" horiz-adv-x="812" 
d="M771 344q0 -109 -65 -201l64 -56l-75 -87l-70 61q-97 -73 -219 -73q-148 0 -256.5 105.5t-108.5 250.5t108.5 250t256.5 105q149 0 257 -105t108 -250zM406 122q60 0 110 33l-80 70l75 87l83 -72q26 47 26 104q0 89 -63.5 155t-150.5 66q-86 0 -149.5 -66t-63.5 -155
q0 -90 63.5 -156t149.5 -66z" />
    <glyph glyph-name="R" unicode="R" horiz-adv-x="678" 
d="M649 0h-168l-157 223h-109v-223h-147v687h309q112 0 185.5 -65t73.5 -167q0 -76 -42.5 -133t-113.5 -82zM215 552v-194h146q55 0 89 26.5t34 70.5t-34 70.5t-89 26.5h-146z" />
    <glyph glyph-name="S" unicode="S" horiz-adv-x="633" 
d="M328 -12q-182 0 -305 114l85 101q104 -90 226 -90q54 0 83 21.5t29 55.5q0 35 -30.5 52t-114.5 36q-61 14 -101 28t-76 37.5t-53.5 58.5t-17.5 83q0 95 70.5 154.5t183.5 59.5q158 0 269 -95l-77 -106q-95 76 -196 76q-46 0 -73.5 -21t-27.5 -53q0 -36 31 -53.5
t116 -36.5q124 -28 185 -71.5t61 -132.5q0 -99 -71 -158.5t-196 -59.5z" />
    <glyph glyph-name="T" unicode="T" horiz-adv-x="639" 
d="M246 0v554h-214v133h576v-133h-214v-554h-148z" />
    <glyph glyph-name="U" unicode="U" horiz-adv-x="755" 
d="M378 -12q-137 0 -224 86.5t-87 222.5v390h147v-384q0 -79 46 -130t118 -51q71 0 117 51t46 130v384h148v-390q0 -136 -87 -222.5t-224 -86.5z" />
    <glyph glyph-name="V" unicode="V" horiz-adv-x="751" 
d="M573 687h165l-280 -687h-165l-280 687h166l197 -484z" />
    <glyph glyph-name="W" unicode="W" horiz-adv-x="1078" 
d="M228 0l-208 687h160l127 -461l152 461h160l152 -461l127 461h160l-208 -687h-148l-162 472l-163 -472h-149z" />
    <glyph glyph-name="X" unicode="X" horiz-adv-x="711" 
d="M694 687l-252 -342l252 -345h-175l-164 225l-166 -225h-171l251 342l-251 345h174l165 -225l165 225h172z" />
    <glyph glyph-name="Y" unicode="Y" horiz-adv-x="694" 
d="M273 0v248l-269 439h172l171 -301l178 301h165l-268 -439v-248h-149z" />
    <glyph glyph-name="Z" unicode="Z" horiz-adv-x="661" 
d="M48 0l-1 112l361 442h-353v133h556v-112l-361 -442h365v-133h-567z" />
    <glyph glyph-name="bracketleft" unicode="[" horiz-adv-x="385" 
d="M71 -142v849h271v-95h-157v-659h157v-95h-271z" />
    <glyph glyph-name="backslash" unicode="\" horiz-adv-x="462" 
d="M332 -74l-345 817h154l345 -817h-154z" />
    <glyph glyph-name="bracketright" unicode="]" horiz-adv-x="385" 
d="M43 -142v95h157v659h-157v95h271v-849h-271z" />
    <glyph glyph-name="asciicircum" unicode="^" horiz-adv-x="488" 
d="M43 413l151 274h101l149 -274h-104l-97 184l-97 -184h-103z" />
    <glyph glyph-name="underscore" unicode="_" horiz-adv-x="592" 
d="M-2 -152v85h596v-85h-596z" />
    <glyph glyph-name="grave" unicode="`" horiz-adv-x="373" 
d="M211 575l-148 132l131 24l116 -156h-99z" />
    <glyph glyph-name="a" unicode="a" horiz-adv-x="581" 
d="M295 529q102 0 164.5 -59.5t62.5 -160.5v-309h-141v52q-56 -64 -152 -64q-84 0 -139.5 46t-55.5 119q0 75 62 123.5t153 48.5q65 0 132 -26v10q0 45 -29.5 74t-89.5 29q-62 0 -134 -37l-49 97q112 57 216 57zM262 89q44 0 78 19.5t41 54.5v48q-52 19 -111 19
q-40 0 -67.5 -21t-27.5 -52t24.5 -49.5t62.5 -18.5z" />
    <glyph glyph-name="b" unicode="b" 
d="M383 529q104 0 171 -76t67 -194q0 -119 -67 -195t-171 -76q-108 0 -173 85v-73h-146v699h146v-254q65 84 173 84zM341 111q61 0 99.5 41.5t38.5 106.5t-38.5 106t-99.5 41q-53 0 -89 -35t-42 -92v-40q6 -57 42 -92.5t89 -35.5z" />
    <glyph glyph-name="c" unicode="c" horiz-adv-x="548" 
d="M317 -12q-115 0 -198.5 80.5t-83.5 190.5t84 190t199 80q122 0 203 -88l-97 -83q-43 48 -107 48q-57 0 -98.5 -43.5t-41.5 -102.5q0 -61 41.5 -105t99.5 -44q64 0 109 50l97 -82q-83 -91 -207 -91z" />
    <glyph glyph-name="d" unicode="d" 
d="M450 699h146v-699h-146v74q-65 -86 -174 -86q-104 0 -171 76t-67 195q0 118 67 194t171 76q109 0 174 -86v256zM318 111q58 0 95 41.5t37 106.5q0 64 -37 105.5t-95 41.5q-61 0 -99.5 -41t-38.5 -106t38.5 -106.5t99.5 -41.5z" />
    <glyph glyph-name="e" unicode="e" horiz-adv-x="593" 
d="M308 117q31 0 64.5 13t54.5 33l93 -95q-34 -36 -93.5 -58t-117.5 -22q-117 0 -195.5 77t-78.5 195q0 116 76 192.5t190 76.5q121 0 189 -85.5t68 -232.5h-373q13 -43 45.5 -68.5t77.5 -25.5zM307 400q-41 0 -73.5 -22.5t-46.5 -61.5h231q-23 84 -111 84z" />
    <glyph glyph-name="f" unicode="f" horiz-adv-x="379" 
d="M237 545v-28h112v-118h-112v-399h-140v399h-71v118h71v45q0 70 43.5 114t111.5 44q69 0 119 -45l-35 -89q-17 17 -50 17q-21 0 -35 -16.5t-14 -41.5z" />
    <glyph glyph-name="g" unicode="g" horiz-adv-x="649" 
d="M438 517h147v-462q0 -100 -78 -163.5t-200 -63.5q-67 0 -128 19t-100 50l51 103q56 -49 154 -49q70 0 112 30t42 80v57q-66 -80 -171 -80q-98 0 -163.5 69.5t-65.5 176.5t65.5 176t163.5 69q52 0 98 -22.5t73 -59.5v70zM313 161q55 0 90 34.5t35 88.5t-35 88t-90 34
t-90 -34t-35 -88t35 -88.5t90 -34.5z" />
    <glyph glyph-name="h" unicode="h" horiz-adv-x="614" 
d="M363 529q84 0 138 -56t54 -144v-329h-141v298q0 48 -27 78t-71 30q-46 0 -77 -29t-31 -71v-306h-146v699h146v-245q24 34 65 54.5t90 20.5z" />
    <glyph glyph-name="i" unicode="i" horiz-adv-x="272" 
d="M137 588q-34 0 -57 23.5t-23 56.5q0 31 23.5 54.5t56.5 23.5q32 0 55 -23.5t23 -54.5q0 -33 -23 -56.5t-55 -23.5zM63 0v517h146v-517h-146z" />
    <glyph glyph-name="j" unicode="j" horiz-adv-x="272" 
d="M137 588q-34 0 -57 23.5t-23 56.5q0 31 23.5 54.5t56.5 23.5q32 0 55 -23.5t23 -54.5q0 -33 -23 -56.5t-55 -23.5zM48 -178q-59 0 -103 21l15 108q25 -9 54 -9q22 0 35.5 16t13.5 42v517h146v-532q0 -71 -45.5 -117t-115.5 -46z" />
    <glyph glyph-name="k" unicode="k" horiz-adv-x="571" 
d="M567 517l-201 -229l199 -288h-168l-128 194l-62 -67v-127h-146v699h146v-405l192 223h168z" />
    <glyph glyph-name="l" unicode="l" horiz-adv-x="273" 
d="M64 0v699h146v-699h-146z" />
    <glyph glyph-name="m" unicode="m" horiz-adv-x="929" 
d="M679 529q82 0 136.5 -56.5t54.5 -143.5v-330h-140v305q0 45 -25.5 73.5t-66.5 28.5q-44 0 -72 -26.5t-28 -67.5v-313h-140v305q0 45 -25.5 73.5t-65.5 28.5q-44 0 -72 -26.5t-28 -67.5v-312h-146v517h146v-68q19 37 56 58.5t84 21.5q53 0 96.5 -25t67.5 -69
q20 43 65.5 68.5t102.5 25.5z" />
    <glyph glyph-name="n" unicode="n" horiz-adv-x="614" 
d="M363 529q84 0 138 -56t54 -144v-329h-141v298q0 48 -27 78t-71 30q-46 0 -77 -29t-31 -71l-1 3v-309h-146v517h146v-65q23 36 64.5 56.5t91.5 20.5z" />
    <glyph glyph-name="o" unicode="o" horiz-adv-x="634" 
d="M318 -12q-115 0 -199 80.5t-84 190.5t83.5 190t199.5 80q115 0 198 -80t83 -190t-83 -190.5t-198 -80.5zM318 111q58 0 100 44t42 104t-42 103.5t-100 43.5t-100.5 -43.5t-42.5 -103.5t42.5 -104t100.5 -44z" />
    <glyph glyph-name="p" unicode="p" 
d="M383 529q104 0 171 -76t67 -194q0 -119 -67 -195t-171 -76q-108 0 -173 85v-245h-146v689h146v-72q65 84 173 84zM341 111q61 0 99.5 41.5t38.5 106.5t-38.5 106t-99.5 41q-53 0 -89 -35t-42 -92v-40q6 -57 42 -92.5t89 -35.5z" />
    <glyph glyph-name="q" unicode="q" 
d="M450 517h146v-689h-146v246q-65 -86 -174 -86q-104 0 -171 76t-67 195q0 118 67 194t171 76q109 0 174 -86v74zM318 111q58 0 95 41.5t37 106.5q0 64 -37 105.5t-95 41.5q-61 0 -99.5 -41t-38.5 -106t38.5 -106.5t99.5 -41.5z" />
    <glyph glyph-name="r" unicode="r" horiz-adv-x="407" 
d="M210 421q26 51 72 79.5t105 28.5v-123q-81 0 -129 -43t-48 -116v-247h-146v517h146v-96z" />
    <glyph glyph-name="s" unicode="s" horiz-adv-x="502" 
d="M258 -12q-136 0 -233 78l63 101q81 -58 173 -58q29 0 48 11t19 28q0 22 -21 32.5t-70 23.5q-46 11 -75 21.5t-57.5 28t-42.5 44t-14 63.5q-1 74 55 121t147 47q108 0 204 -64l-59 -104q-75 46 -145 46q-27 0 -44 -8.5t-17 -22.5q0 -20 17.5 -30t73.5 -25q42 -11 68 -20.5
t57.5 -28t47 -48t15.5 -69.5q0 -76 -57.5 -121.5t-152.5 -45.5z" />
    <glyph glyph-name="t" unicode="t" horiz-adv-x="398" 
d="M336 128l35 -95q-50 -45 -119 -45q-68 0 -111.5 44t-43.5 114v253h-71v118h71v142h140v-142h112v-118h-112v-230q0 -25 14 -41.5t35 -16.5q33 0 50 17z" />
    <glyph glyph-name="u" unicode="u" horiz-adv-x="614" 
d="M407 517h146v-517h-146v65q-23 -36 -64.5 -56.5t-91.5 -20.5q-84 0 -138 56t-54 144v329h141v-298q0 -48 27 -78t71 -30q46 0 77 29t31 71l1 -3v309z" />
    <glyph glyph-name="v" unicode="v" horiz-adv-x="606" 
d="M237 0l-224 517h153l139 -349l136 349h152l-221 -517h-135z" />
    <glyph glyph-name="w" unicode="w" horiz-adv-x="841" 
d="M194 0l-176 517h143l98 -322l102 322h121l102 -322l98 322h143l-176 -517h-131l-96 325l-97 -325h-131z" />
    <glyph glyph-name="x" unicode="x" horiz-adv-x="566" 
d="M551 0h-157l-112 156l-113 -156h-154l190 263l-182 254h158l103 -144l104 144h154l-181 -251z" />
    <glyph glyph-name="y" unicode="y" horiz-adv-x="601" 
d="M182 -180q-71 0 -130 32l31 100q41 -23 68 -23q45 0 61 28l18 38l-215 522h151l136 -363l129 363h149l-212 -543q-29 -75 -77 -114.5t-109 -39.5z" />
    <glyph glyph-name="z" unicode="z" horiz-adv-x="532" 
d="M41 0v103l260 290h-253v124h443v-103l-260 -290h262v-124h-452z" />
    <glyph glyph-name="braceleft" unicode="{" horiz-adv-x="407" 
d="M360 -166q-127 10 -180 52.5t-53 128.5l1 121q0 46 -22 66t-73 20v88q51 0 73 20.5t22 65.5l-1 120q0 86 53.5 128.5t179.5 52.5l11 -89q-81 -10 -105.5 -30t-24.5 -73l1 -126q0 -87 -77 -113q77 -25 77 -114l-1 -125q0 -53 25 -73t105 -31z" />
    <glyph glyph-name="bar" unicode="|" horiz-adv-x="299" 
d="M99 -74v817h101v-817h-101z" />
    <glyph glyph-name="braceright" unicode="}" horiz-adv-x="407" 
d="M47 -166l-12 89q80 11 105 31t25 73l-1 125q0 88 78 114q-78 26 -78 113l1 126q0 53 -24.5 73t-105.5 30l12 89q126 -10 179 -52.5t53 -128.5l-1 -120q0 -46 22 -66t74 -20v-88q-51 0 -73.5 -20t-22.5 -66l1 -121q0 -86 -53 -128.5t-179 -52.5z" />
    <glyph glyph-name="asciitilde" unicode="~" horiz-adv-x="452" 
d="M293 294q-31 0 -74 25.5t-57 25.5q-32 0 -42 -53l-73 11q17 132 111 132q31 0 75 -25.5t57 -25.5q32 0 42 52l72 -10q-15 -132 -111 -132z" />
    <glyph glyph-name="exclamdown" unicode="&#xa1;" horiz-adv-x="307" 
d="M152 529q39 0 66 -27.5t27 -65.5q0 -36 -27 -62.5t-66 -26.5q-36 0 -62.5 26.5t-26.5 62.5q0 38 26 65.5t63 27.5zM201 275l33 -445h-165l33 445h99z" />
    <glyph glyph-name="cent" unicode="&#xa2;" horiz-adv-x="548" 
d="M524 79q-68 -76 -169 -89v-64h-98v68q-95 21 -158.5 96t-63.5 169t63.5 168.5t158.5 94.5v67h98v-62q100 -13 166 -86l-97 -83q-28 31 -69 43v-285q43 13 72 45zM177 260q0 -43 22 -79.5t58 -54.5v265q-36 -18 -58 -53.5t-22 -77.5z" />
    <glyph glyph-name="sterling" unicode="&#xa3;" horiz-adv-x="654" 
d="M280 115h342v-115h-576v61l86 54v139h-69v79h69v130q0 103 66 169.5t170 66.5q70 0 134.5 -32t95.5 -82l-97 -96q-14 34 -46.5 55t-70.5 21q-46 0 -75 -32t-29 -82v-118h163v-79h-163v-139z" />
    <glyph glyph-name="yen" unicode="&#xa5;" horiz-adv-x="694" 
d="M690 687l-223 -365h128v-79h-173v-64h173v-79h-173v-100h-149v100h-174v79h174v64h-174v79h129l-224 365h172l171 -301l178 301h165z" />
    <glyph glyph-name="dieresis" unicode="&#xa8;" horiz-adv-x="478" 
d="M134 584q-30 0 -50.5 20.5t-20.5 49.5t20.5 49.5t50.5 20.5q28 0 49 -21t21 -49t-21 -49t-49 -21zM345 584q-29 0 -49.5 20.5t-20.5 49.5t20.5 49.5t49.5 20.5t49.5 -20.5t20.5 -49.5t-20.5 -49.5t-49.5 -20.5z" />
    <glyph glyph-name="guillemotleft" unicode="&#xab;" horiz-adv-x="586" 
d="M200 50l-165 204l165 202l112 -24l-142 -178l142 -179zM434 50l-165 204l165 202l112 -24l-142 -178l142 -179z" />
    <glyph glyph-name="macron" unicode="&#xaf;" horiz-adv-x="471" 
d="M63 581v86h345v-86h-345z" />
    <glyph glyph-name="acute" unicode="&#xb4;" horiz-adv-x="373" 
d="M63 575l116 156l131 -24l-148 -132h-99z" />
    <glyph glyph-name="paragraph" unicode="&#xb6;" horiz-adv-x="703" 
d="M270 -50v332q-109 0 -174 55t-65 146q0 90 63 146t163 56h348v-735h-107v635h-121v-635h-107z" />
    <glyph glyph-name="periodcentered" unicode="&#xb7;" horiz-adv-x="266" 
d="M133 195q-35 0 -58.5 23.5t-23.5 58.5q0 34 24 57.5t58 23.5t58 -23.5t24 -57.5q0 -35 -24 -58.5t-58 -23.5z" />
    <glyph glyph-name="cedilla" unicode="&#xb8;" horiz-adv-x="329" 
d="M191 -43q33 0 54 -19t21 -49q0 -39 -30.5 -62.5t-77.5 -23.5q-55 0 -95 29l26 58q28 -23 61 -23q18 0 30 8.5t12 21.5q0 27 -33 27q-17 0 -30 -9l-22 21l32 75h74z" />
    <glyph glyph-name="guillemotright" unicode="&#xbb;" horiz-adv-x="586" 
d="M151 50l-112 25l142 179l-142 178l112 24l165 -202zM385 50l-112 25l142 179l-142 178l112 24l165 -202z" />
    <glyph glyph-name="questiondown" unicode="&#xbf;" horiz-adv-x="505" 
d="M271 529q39 0 66 -27.5t27 -65.5q0 -36 -27 -62.5t-66 -26.5q-36 0 -62.5 26.5t-26.5 62.5q0 38 26 65.5t63 27.5zM336 281v-164q-69 -3 -113 -28t-44 -61q0 -33 27.5 -55.5t72.5 -22.5q71 0 126 62l84 -86q-96 -108 -235 -108q-99 0 -162 55.5t-63 140.5q0 67 50 122
t127 73v72h130z" />
    <glyph glyph-name="Agrave" unicode="&#xc0;" horiz-adv-x="751" 
d="M429 745h-99l-148 132l131 24zM572 0l-44 108h-306l-44 -108h-165l280 687h165l280 -687h-166zM273 233h204l-102 251z" />
    <glyph glyph-name="Aacute" unicode="&#xc1;" horiz-adv-x="751" 
d="M571 877l-148 -132h-99l116 156zM572 0l-44 108h-306l-44 -108h-165l280 687h165l280 -687h-166zM273 233h204l-102 251z" />
    <glyph glyph-name="Acircumflex" unicode="&#xc2;" horiz-adv-x="751" 
d="M376 819l-75 -74h-90l105 147h121l106 -147h-91zM572 0l-44 108h-306l-44 -108h-165l280 687h165l280 -687h-166zM273 233h204l-102 251z" />
    <glyph glyph-name="Atilde" unicode="&#xc3;" horiz-adv-x="751" 
d="M312 794q-32 0 -42 -53l-73 11q17 132 111 132q31 0 75 -25.5t57 -25.5q32 0 42 52l72 -10q-15 -132 -111 -132q-31 0 -74 25.5t-57 25.5zM572 0l-44 108h-306l-44 -108h-165l280 687h165l280 -687h-166zM273 233h204l-102 251z" />
    <glyph glyph-name="Adieresis" unicode="&#xc4;" horiz-adv-x="751" 
d="M271 754q-30 0 -50.5 20.5t-20.5 49.5t20.5 49.5t50.5 20.5q29 0 49.5 -21t20.5 -49t-20.5 -49t-49.5 -21zM482 754q-29 0 -49.5 20.5t-20.5 49.5t20.5 49.5t49.5 20.5t49.5 -20.5t20.5 -49.5t-20.5 -49.5t-49.5 -20.5zM572 0l-44 108h-306l-44 -108h-165l280 687h165
l280 -687h-166zM273 233h204l-102 251z" />
    <glyph glyph-name="Aring" unicode="&#xc5;" horiz-adv-x="751" 
d="M376 751q-47 0 -80.5 33t-33.5 80t33.5 80.5t80.5 33.5t80.5 -33.5t33.5 -80.5t-33.5 -80t-80.5 -33zM376 917q-22 0 -37.5 -15.5t-15.5 -37.5t15.5 -37.5t37.5 -15.5t37.5 15.5t15.5 37.5t-15.5 37.5t-37.5 15.5zM572 0l-44 108h-306l-44 -108h-165l280 687h165
l280 -687h-166zM273 233h204l-102 251z" />
    <glyph glyph-name="AE" unicode="&#xc6;" horiz-adv-x="1077" 
d="M1033 554h-381v-137h345v-133h-345v-151h381v-133h-529v118h-252l-68 -118h-171l397 687h623v-133zM319 233h185v321z" />
    <glyph glyph-name="Ccedilla" unicode="&#xc7;" horiz-adv-x="696" 
d="M406 122q93 0 160 77l107 -96q-99 -103 -240 -114l-13 -32q33 0 54 -19t21 -49q0 -39 -30.5 -62.5t-77.5 -23.5q-55 0 -95 29l26 58q28 -23 61 -23q18 0 30 8.5t12 21.5q0 27 -33 27q-16 0 -30 -9l-22 21l23 55q-133 17 -225.5 118.5t-92.5 234.5q0 145 108.5 250
t256.5 105q158 0 267 -115l-107 -96q-67 77 -160 77q-86 0 -149.5 -66t-63.5 -155q0 -90 63.5 -156t149.5 -66z" />
    <glyph glyph-name="Egrave" unicode="&#xc8;" horiz-adv-x="641" 
d="M427 745h-99l-148 132l131 24zM597 554h-381v-137h345v-133h-345v-151h381v-133h-529v687h529v-133z" />
    <glyph glyph-name="Eacute" unicode="&#xc9;" horiz-adv-x="641" 
d="M477 877l-148 -132h-99l116 156zM597 554h-381v-137h345v-133h-345v-151h381v-133h-529v687h529v-133z" />
    <glyph glyph-name="Ecircumflex" unicode="&#xca;" horiz-adv-x="641" 
d="M333 819l-75 -74h-90l105 147h121l106 -147h-91zM597 554h-381v-137h345v-133h-345v-151h381v-133h-529v687h529v-133z" />
    <glyph glyph-name="Edieresis" unicode="&#xcb;" horiz-adv-x="641" 
d="M228 754q-30 0 -50.5 20.5t-20.5 49.5t20.5 49.5t50.5 20.5q28 0 49 -21t21 -49t-21 -49t-49 -21zM439 754q-29 0 -49.5 20.5t-20.5 49.5t20.5 49.5t49.5 20.5t49.5 -20.5t20.5 -49.5t-20.5 -49.5t-49.5 -20.5zM597 554h-381v-137h345v-133h-345v-151h381v-133h-529v687
h529v-133z" />
    <glyph glyph-name="Igrave" unicode="&#xcc;" horiz-adv-x="287" 
d="M95 745l-148 132l131 24l116 -156h-99zM70 0v687h148v-687h-148z" />
    <glyph glyph-name="Iacute" unicode="&#xcd;" horiz-adv-x="287" 
d="M93 745l116 156l131 -24l-148 -132h-99zM70 0v687h148v-687h-148z" />
    <glyph glyph-name="Icircumflex" unicode="&#xce;" horiz-adv-x="287" 
d="M-21 745l105 147h121l106 -147h-91l-76 74l-75 -74h-90zM70 0v687h148v-687h-148z" />
    <glyph glyph-name="Idieresis" unicode="&#xcf;" horiz-adv-x="287" 
d="M39 754q-30 0 -50.5 20.5t-20.5 49.5t20.5 49.5t50.5 20.5q29 0 49.5 -21t20.5 -49t-20.5 -49t-49.5 -21zM250 754q-29 0 -49.5 20.5t-20.5 49.5t20.5 49.5t49.5 20.5t49.5 -20.5t20.5 -49.5t-20.5 -49.5t-49.5 -20.5zM70 0v687h148v-687h-148z" />
    <glyph glyph-name="Eth" unicode="&#xd0;" horiz-adv-x="802" 
d="M362 687q173 0 284 -96t111 -247t-111 -247.5t-284 -96.5h-246v280h-75v133h75v274h246zM381 134q98 0 161 59t63 151t-63 150.5t-161 58.5h-118v-140h157l-1 -133h-156v-146h118z" />
    <glyph glyph-name="Ntilde" unicode="&#xd1;" horiz-adv-x="774" 
d="M454 743q-31 0 -74 25.5t-57 25.5q-32 0 -42 -53l-73 11q17 132 111 132q31 0 75 -25.5t57 -25.5q32 0 42 52l72 -10q-15 -132 -111 -132zM74 0v687h147l331 -444v444h148v-687h-148l-331 444v-444h-147z" />
    <glyph glyph-name="Ograve" unicode="&#xd2;" horiz-adv-x="812" 
d="M359 745l-148 132l131 24l116 -156h-99zM406 -12q-148 0 -256.5 105.5t-108.5 250.5t108.5 250t256.5 105q149 0 257 -105t108 -250t-108 -250.5t-257 -105.5zM406 122q87 0 150.5 66t63.5 156q0 89 -63.5 155t-150.5 66q-86 0 -149.5 -66t-63.5 -155q0 -90 63.5 -156
t149.5 -66z" />
    <glyph glyph-name="Oacute" unicode="&#xd3;" horiz-adv-x="812" 
d="M354 745l116 156l131 -24l-148 -132h-99zM406 -12q-148 0 -256.5 105.5t-108.5 250.5t108.5 250t256.5 105q149 0 257 -105t108 -250t-108 -250.5t-257 -105.5zM406 122q87 0 150.5 66t63.5 156q0 89 -63.5 155t-150.5 66q-86 0 -149.5 -66t-63.5 -155q0 -90 63.5 -156
t149.5 -66z" />
    <glyph glyph-name="Ocircumflex" unicode="&#xd4;" horiz-adv-x="812" 
d="M241 745l105 147h121l106 -147h-91l-76 74l-75 -74h-90zM406 -12q-148 0 -256.5 105.5t-108.5 250.5t108.5 250t256.5 105q149 0 257 -105t108 -250t-108 -250.5t-257 -105.5zM406 122q87 0 150.5 66t63.5 156q0 89 -63.5 155t-150.5 66q-86 0 -149.5 -66t-63.5 -155
q0 -90 63.5 -156t149.5 -66z" />
    <glyph glyph-name="Otilde" unicode="&#xd5;" horiz-adv-x="812" 
d="M473 743q-31 0 -74 25.5t-57 25.5q-32 0 -42 -53l-73 11q17 132 111 132q31 0 75 -25.5t57 -25.5q32 0 42 52l72 -10q-15 -132 -111 -132zM406 -12q-148 0 -256.5 105.5t-108.5 250.5t108.5 250t256.5 105q149 0 257 -105t108 -250t-108 -250.5t-257 -105.5zM406 122
q87 0 150.5 66t63.5 156q0 89 -63.5 155t-150.5 66q-86 0 -149.5 -66t-63.5 -155q0 -90 63.5 -156t149.5 -66z" />
    <glyph glyph-name="Odieresis" unicode="&#xd6;" horiz-adv-x="812" 
d="M301 754q-30 0 -50.5 20.5t-20.5 49.5t20.5 49.5t50.5 20.5q29 0 49.5 -21t20.5 -49t-20.5 -49t-49.5 -21zM512 754q-29 0 -49.5 20.5t-20.5 49.5t20.5 49.5t49.5 20.5t49.5 -20.5t20.5 -49.5t-20.5 -49.5t-49.5 -20.5zM406 -12q-148 0 -256.5 105.5t-108.5 250.5
t108.5 250t256.5 105q149 0 257 -105t108 -250t-108 -250.5t-257 -105.5zM406 122q87 0 150.5 66t63.5 156q0 89 -63.5 155t-150.5 66q-86 0 -149.5 -66t-63.5 -155q0 -90 63.5 -156t149.5 -66z" />
    <glyph glyph-name="multiply" unicode="&#xd7;" horiz-adv-x="561" 
d="M496 208l-89 -89l-129 128l-126 -126l-85 84l127 127l-129 128l89 89l129 -128l126 126l84 -85l-126 -126z" />
    <glyph glyph-name="Oslash" unicode="&#xd8;" horiz-adv-x="812" 
d="M674 582q97 -102 97 -238q0 -145 -108 -250.5t-257 -105.5q-101 0 -190 54l-36 -42h-130l89 105q-98 101 -98 239q0 145 108.5 250t256.5 105q102 0 191 -54l36 42h130zM193 344q0 -69 40 -128l274 322q-49 27 -101 27q-86 0 -149.5 -66t-63.5 -155zM406 122
q87 0 150.5 66t63.5 156q0 69 -40 127l-274 -322q48 -27 100 -27z" />
    <glyph glyph-name="Ugrave" unicode="&#xd9;" horiz-adv-x="755" 
d="M373 745l-148 132l131 24l116 -156h-99zM378 -12q-137 0 -224 86.5t-87 222.5v390h147v-384q0 -79 46 -130t118 -51q71 0 117 51t46 130v384h148v-390q0 -136 -87 -222.5t-224 -86.5z" />
    <glyph glyph-name="Uacute" unicode="&#xda;" horiz-adv-x="755" 
d="M275 745l116 156l131 -24l-148 -132h-99zM378 -12q-137 0 -224 86.5t-87 222.5v390h147v-384q0 -79 46 -130t118 -51q71 0 117 51t46 130v384h148v-390q0 -136 -87 -222.5t-224 -86.5z" />
    <glyph glyph-name="Ucircumflex" unicode="&#xdb;" horiz-adv-x="755" 
d="M213 745l105 147h121l106 -147h-91l-76 74l-75 -74h-90zM378 -12q-137 0 -224 86.5t-87 222.5v390h147v-384q0 -79 46 -130t118 -51q71 0 117 51t46 130v384h148v-390q0 -136 -87 -222.5t-224 -86.5z" />
    <glyph glyph-name="Udieresis" unicode="&#xdc;" horiz-adv-x="755" 
d="M273 754q-30 0 -50.5 20.5t-20.5 49.5t20.5 49.5t50.5 20.5q29 0 49.5 -21t20.5 -49t-20.5 -49t-49.5 -21zM484 754q-29 0 -49.5 20.5t-20.5 49.5t20.5 49.5t49.5 20.5t49.5 -20.5t20.5 -49.5t-20.5 -49.5t-49.5 -20.5zM378 -12q-137 0 -224 86.5t-87 222.5v390h147v-384
q0 -79 46 -130t118 -51q71 0 117 51t46 130v384h148v-390q0 -136 -87 -222.5t-224 -86.5z" />
    <glyph glyph-name="Yacute" unicode="&#xdd;" horiz-adv-x="694" 
d="M244 745l116 156l131 -24l-148 -132h-99zM273 0v248l-269 439h172l171 -301l178 301h165l-268 -439v-248h-149z" />
    <glyph glyph-name="Thorn" unicode="&#xde;" 
d="M68 0v687h145v-110h164q112 0 185.5 -65t73.5 -167t-73.5 -167t-185.5 -65h-162v-113h-147zM215 249h146q55 0 89 26t34 70t-34 70.5t-89 26.5h-146v-193z" />
    <glyph glyph-name="germandbls" unicode="&#xdf;" horiz-adv-x="613" 
d="M64 0v519q0 87 68 142.5t175 55.5t175 -55.5t68 -142.5q0 -107 -96 -157q60 -27 93 -73t33 -103q0 -82 -63 -134t-162 -52h-72v126h44q45 0 73.5 23.5t28.5 60.5t-28.5 60.5t-73.5 23.5h-44v116h22q41 0 67.5 23.5t26.5 56.5q0 35 -26 57t-68 22q-41 0 -67.5 -23.5
t-26.5 -62.5v-483h-147z" />
    <glyph glyph-name="agrave" unicode="&#xe0;" horiz-adv-x="581" 
d="M394 575h-99l-148 132l131 24zM295 529q102 0 164.5 -59.5t62.5 -160.5v-309h-141v52q-56 -64 -152 -64q-84 0 -139.5 46t-55.5 119q0 75 62 123.5t153 48.5q65 0 132 -26v10q0 45 -29.5 74t-89.5 29q-62 0 -134 -37l-49 97q112 57 216 57zM262 89q44 0 78 19.5t41 54.5
v48q-52 19 -111 19q-40 0 -67.5 -21t-27.5 -52t24.5 -49.5t62.5 -18.5z" />
    <glyph glyph-name="aacute" unicode="&#xe1;" horiz-adv-x="581" 
d="M444 707l-148 -132h-99l116 156zM295 529q102 0 164.5 -59.5t62.5 -160.5v-309h-141v52q-56 -64 -152 -64q-84 0 -139.5 46t-55.5 119q0 75 62 123.5t153 48.5q65 0 132 -26v10q0 45 -29.5 74t-89.5 29q-62 0 -134 -37l-49 97q112 57 216 57zM262 89q44 0 78 19.5
t41 54.5v48q-52 19 -111 19q-40 0 -67.5 -21t-27.5 -52t24.5 -49.5t62.5 -18.5z" />
    <glyph glyph-name="acircumflex" unicode="&#xe2;" horiz-adv-x="581" 
d="M300 649l-75 -74h-90l105 147h121l106 -147h-91zM295 529q102 0 164.5 -59.5t62.5 -160.5v-309h-141v52q-56 -64 -152 -64q-84 0 -139.5 46t-55.5 119q0 75 62 123.5t153 48.5q65 0 132 -26v10q0 45 -29.5 74t-89.5 29q-62 0 -134 -37l-49 97q112 57 216 57zM262 89
q44 0 78 19.5t41 54.5v48q-52 19 -111 19q-40 0 -67.5 -21t-27.5 -52t24.5 -49.5t62.5 -18.5z" />
    <glyph glyph-name="atilde" unicode="&#xe3;" horiz-adv-x="581" 
d="M236 624q-32 0 -42 -53l-73 11q17 132 111 132q31 0 75 -25.5t57 -25.5q32 0 42 52l72 -10q-15 -132 -111 -132q-31 0 -74 25.5t-57 25.5zM295 529q102 0 164.5 -59.5t62.5 -160.5v-309h-141v52q-56 -64 -152 -64q-84 0 -139.5 46t-55.5 119q0 75 62 123.5t153 48.5
q65 0 132 -26v10q0 45 -29.5 74t-89.5 29q-62 0 -134 -37l-49 97q112 57 216 57zM262 89q44 0 78 19.5t41 54.5v48q-52 19 -111 19q-40 0 -67.5 -21t-27.5 -52t24.5 -49.5t62.5 -18.5z" />
    <glyph glyph-name="adieresis" unicode="&#xe4;" horiz-adv-x="581" 
d="M195 584q-30 0 -50.5 20.5t-20.5 49.5t20.5 49.5t50.5 20.5q29 0 49.5 -21t20.5 -49t-20.5 -49t-49.5 -21zM406 584q-29 0 -49.5 20.5t-20.5 49.5t20.5 49.5t49.5 20.5t49.5 -20.5t20.5 -49.5t-20.5 -49.5t-49.5 -20.5zM295 529q102 0 164.5 -59.5t62.5 -160.5v-309h-141
v52q-56 -64 -152 -64q-84 0 -139.5 46t-55.5 119q0 75 62 123.5t153 48.5q65 0 132 -26v10q0 45 -29.5 74t-89.5 29q-62 0 -134 -37l-49 97q112 57 216 57zM262 89q44 0 78 19.5t41 54.5v48q-52 19 -111 19q-40 0 -67.5 -21t-27.5 -52t24.5 -49.5t62.5 -18.5z" />
    <glyph glyph-name="aring" unicode="&#xe5;" horiz-adv-x="581" 
d="M300 581q-47 0 -80.5 33t-33.5 80t33.5 80.5t80.5 33.5t80.5 -33.5t33.5 -80.5t-33.5 -80t-80.5 -33zM300 747q-22 0 -37.5 -15.5t-15.5 -37.5t15.5 -37.5t37.5 -15.5t37.5 15.5t15.5 37.5t-15.5 37.5t-37.5 15.5zM295 529q102 0 164.5 -59.5t62.5 -160.5v-309h-141v52
q-56 -64 -152 -64q-84 0 -139.5 46t-55.5 119q0 75 62 123.5t153 48.5q65 0 132 -26v10q0 45 -29.5 74t-89.5 29q-62 0 -134 -37l-49 97q112 57 216 57zM262 89q44 0 78 19.5t41 54.5v48q-52 19 -111 19q-40 0 -67.5 -21t-27.5 -52t24.5 -49.5t62.5 -18.5z" />
    <glyph glyph-name="ae" unicode="&#xe6;" horiz-adv-x="938" 
d="M654 117q31 0 64.5 13t54.5 33l93 -95q-34 -36 -93.5 -58t-117.5 -22q-124 0 -204 86q-67 -86 -200 -86q-98 0 -157.5 45t-59.5 120t62 123.5t153 48.5q65 0 132 -26v10q0 45 -29.5 74t-89.5 29q-62 0 -134 -37l-49 97q112 57 204 57q117 0 173 -77q77 77 191 77
q121 0 189 -85.5t68 -232.5h-373q13 -43 45.5 -68.5t77.5 -25.5zM653 400q-41 0 -73.5 -22.5t-46.5 -61.5h231q-23 84 -111 84zM266 89q50 0 82.5 25.5t32.5 64.5v32q-52 19 -111 19q-40 0 -67.5 -21t-27.5 -52t24.5 -49.5t66.5 -18.5z" />
    <glyph glyph-name="ccedilla" unicode="&#xe7;" horiz-adv-x="548" 
d="M524 79q-72 -78 -177 -90l-13 -32q33 0 54 -19t21 -49q0 -39 -30.5 -62.5t-77.5 -23.5q-55 0 -95 29l26 58q28 -23 61 -23q18 0 30 8.5t12 21.5q0 27 -33 27q-16 0 -30 -9l-22 21l24 55q-101 16 -170 92.5t-69 175.5q0 110 84 190t199 80q122 0 203 -88l-97 -83
q-43 48 -107 48q-57 0 -98.5 -43.5t-41.5 -102.5q0 -61 41.5 -105t99.5 -44q64 0 109 50z" />
    <glyph glyph-name="egrave" unicode="&#xe8;" horiz-adv-x="593" 
d="M395 575h-99l-148 132l131 24zM308 117q31 0 64.5 13t54.5 33l93 -95q-34 -36 -93.5 -58t-117.5 -22q-117 0 -195.5 77t-78.5 195q0 116 76 192.5t190 76.5q121 0 189 -85.5t68 -232.5h-373q13 -43 45.5 -68.5t77.5 -25.5zM307 400q-41 0 -73.5 -22.5t-46.5 -61.5h231
q-23 84 -111 84z" />
    <glyph glyph-name="eacute" unicode="&#xe9;" horiz-adv-x="593" 
d="M445 707l-148 -132h-99l116 156zM308 117q31 0 64.5 13t54.5 33l93 -95q-34 -36 -93.5 -58t-117.5 -22q-117 0 -195.5 77t-78.5 195q0 116 76 192.5t190 76.5q121 0 189 -85.5t68 -232.5h-373q13 -43 45.5 -68.5t77.5 -25.5zM307 400q-41 0 -73.5 -22.5t-46.5 -61.5h231
q-23 84 -111 84z" />
    <glyph glyph-name="ecircumflex" unicode="&#xea;" horiz-adv-x="593" 
d="M301 649l-75 -74h-90l105 147h121l106 -147h-91zM308 117q31 0 64.5 13t54.5 33l93 -95q-34 -36 -93.5 -58t-117.5 -22q-117 0 -195.5 77t-78.5 195q0 116 76 192.5t190 76.5q121 0 189 -85.5t68 -232.5h-373q13 -43 45.5 -68.5t77.5 -25.5zM307 400q-41 0 -73.5 -22.5
t-46.5 -61.5h231q-23 84 -111 84z" />
    <glyph glyph-name="edieresis" unicode="&#xeb;" horiz-adv-x="593" 
d="M196 584q-30 0 -50.5 20.5t-20.5 49.5t20.5 49.5t50.5 20.5q28 0 49 -21t21 -49t-21 -49t-49 -21zM407 584q-29 0 -49.5 20.5t-20.5 49.5t20.5 49.5t49.5 20.5t49.5 -20.5t20.5 -49.5t-20.5 -49.5t-49.5 -20.5zM308 117q31 0 64.5 13t54.5 33l93 -95q-34 -36 -93.5 -58
t-117.5 -22q-117 0 -195.5 77t-78.5 195q0 116 76 192.5t190 76.5q121 0 189 -85.5t68 -232.5h-373q13 -43 45.5 -68.5t77.5 -25.5zM307 400q-41 0 -73.5 -22.5t-46.5 -61.5h231q-23 84 -111 84z" />
    <glyph glyph-name="igrave" unicode="&#xec;" horiz-adv-x="272" 
d="M87 575l-148 132l131 24l116 -156h-99zM63 0v517h146v-517h-146z" />
    <glyph glyph-name="iacute" unicode="&#xed;" horiz-adv-x="272" 
d="M85 575l116 156l131 -24l-148 -132h-99zM63 0v517h146v-517h-146z" />
    <glyph glyph-name="icircumflex" unicode="&#xee;" horiz-adv-x="272" 
d="M-29 575l105 147h121l106 -147h-91l-76 74l-75 -74h-90zM63 0v517h146v-517h-146z" />
    <glyph glyph-name="idieresis" unicode="&#xef;" horiz-adv-x="272" 
d="M31 584q-30 0 -50.5 20.5t-20.5 49.5t20.5 49.5t50.5 20.5q29 0 49.5 -21t20.5 -49t-20.5 -49t-49.5 -21zM242 584q-29 0 -49.5 20.5t-20.5 49.5t20.5 49.5t49.5 20.5t49.5 -20.5t20.5 -49.5t-20.5 -49.5t-49.5 -20.5zM63 0v517h146v-517h-146z" />
    <glyph glyph-name="eth" unicode="&#xf0;" horiz-adv-x="632" 
d="M418 615q89 -83 130 -161.5t41 -173.5q0 -128 -76 -210t-196 -82q-119 0 -195.5 73.5t-76.5 188.5q0 107 63 175.5t162 68.5q91 0 153 -72q-36 70 -121 141l-104 -46l-35 77l63 28l-72 48l131 56l63 -50l90 40l34 -77zM318 112q57 0 93 37t36 95q0 56 -36 94t-95 38
q-57 0 -93 -37t-36 -94q0 -59 36.5 -96t94.5 -37z" />
    <glyph glyph-name="ntilde" unicode="&#xf1;" horiz-adv-x="614" 
d="M255 624q-32 0 -42 -53l-73 11q17 132 111 132q31 0 75 -25.5t57 -25.5q32 0 42 52l72 -10q-15 -132 -111 -132q-31 0 -74 25.5t-57 25.5zM363 529q84 0 138 -56t54 -144v-329h-141v298q0 48 -27 78t-71 30q-46 0 -77 -29t-31 -71l-1 3v-309h-146v517h146v-65
q23 36 64.5 56.5t91.5 20.5z" />
    <glyph glyph-name="ograve" unicode="&#xf2;" horiz-adv-x="634" 
d="M313 575l-148 132l131 24l116 -156h-99zM318 -12q-115 0 -199 80.5t-84 190.5t83.5 190t199.5 80q115 0 198 -80t83 -190t-83 -190.5t-198 -80.5zM318 111q58 0 100 44t42 104t-42 103.5t-100 43.5t-100.5 -43.5t-42.5 -103.5t42.5 -104t100.5 -44z" />
    <glyph glyph-name="oacute" unicode="&#xf3;" horiz-adv-x="634" 
d="M215 575l116 156l131 -24l-148 -132h-99zM318 -12q-115 0 -199 80.5t-84 190.5t83.5 190t199.5 80q115 0 198 -80t83 -190t-83 -190.5t-198 -80.5zM318 111q58 0 100 44t42 104t-42 103.5t-100 43.5t-100.5 -43.5t-42.5 -103.5t42.5 -104t100.5 -44z" />
    <glyph glyph-name="ocircumflex" unicode="&#xf4;" horiz-adv-x="634" 
d="M153 575l105 147h121l106 -147h-91l-76 74l-75 -74h-90zM318 -12q-115 0 -199 80.5t-84 190.5t83.5 190t199.5 80q115 0 198 -80t83 -190t-83 -190.5t-198 -80.5zM318 111q58 0 100 44t42 104t-42 103.5t-100 43.5t-100.5 -43.5t-42.5 -103.5t42.5 -104t100.5 -44z" />
    <glyph glyph-name="otilde" unicode="&#xf5;" horiz-adv-x="634" 
d="M385 573q-31 0 -74 25.5t-57 25.5q-32 0 -42 -53l-73 11q17 132 111 132q31 0 75 -25.5t57 -25.5q32 0 42 52l72 -10q-15 -132 -111 -132zM318 -12q-115 0 -199 80.5t-84 190.5t83.5 190t199.5 80q115 0 198 -80t83 -190t-83 -190.5t-198 -80.5zM318 111q58 0 100 44
t42 104t-42 103.5t-100 43.5t-100.5 -43.5t-42.5 -103.5t42.5 -104t100.5 -44z" />
    <glyph glyph-name="odieresis" unicode="&#xf6;" horiz-adv-x="634" 
d="M213 584q-30 0 -50.5 20.5t-20.5 49.5t20.5 49.5t50.5 20.5q29 0 49.5 -21t20.5 -49t-20.5 -49t-49.5 -21zM424 584q-29 0 -49.5 20.5t-20.5 49.5t20.5 49.5t49.5 20.5t49.5 -20.5t20.5 -49.5t-20.5 -49.5t-49.5 -20.5zM318 -12q-115 0 -199 80.5t-84 190.5t83.5 190
t199.5 80q115 0 198 -80t83 -190t-83 -190.5t-198 -80.5zM318 111q58 0 100 44t42 104t-42 103.5t-100 43.5t-100.5 -43.5t-42.5 -103.5t42.5 -104t100.5 -44z" />
    <glyph glyph-name="divide" unicode="&#xf7;" horiz-adv-x="603" 
d="M303 442q-34 0 -58 24t-24 58q0 32 24 55.5t58 23.5q33 0 56 -23.5t23 -55.5q0 -34 -23 -58t-56 -24zM60 275v119h483v-119h-483zM303 65q-34 0 -58 24t-24 58q0 32 24 55.5t58 23.5q33 0 56 -23.5t23 -55.5q0 -34 -23 -58t-56 -24z" />
    <glyph glyph-name="oslash" unicode="&#xf8;" horiz-adv-x="634" 
d="M526 439q73 -78 73 -180q0 -110 -83 -190.5t-198 -80.5q-77 0 -146 40l-24 -28h-106l67 78q-74 77 -74 181q0 110 83.5 190t199.5 80q77 0 146 -40l24 28h106zM175 259q0 -44 23 -79l181 211q-27 15 -61 15q-58 0 -100.5 -43.5t-42.5 -103.5zM318 111q58 0 100 44t42 104
q0 42 -22 77l-181 -210q27 -15 61 -15z" />
    <glyph glyph-name="ugrave" unicode="&#xf9;" horiz-adv-x="614" 
d="M399 575h-99l-148 132l131 24zM407 517h146v-517h-146v65q-23 -36 -64.5 -56.5t-91.5 -20.5q-84 0 -138 56t-54 144v329h141v-298q0 -48 27 -78t71 -30q46 0 77 29t31 71l1 -3v309z" />
    <glyph glyph-name="uacute" unicode="&#xfa;" horiz-adv-x="614" 
d="M449 707l-148 -132h-99l116 156zM407 517h146v-517h-146v65q-23 -36 -64.5 -56.5t-91.5 -20.5q-84 0 -138 56t-54 144v329h141v-298q0 -48 27 -78t71 -30q46 0 77 29t31 71l1 -3v309z" />
    <glyph glyph-name="ucircumflex" unicode="&#xfb;" horiz-adv-x="614" 
d="M305 649l-75 -74h-90l105 147h121l106 -147h-91zM407 517h146v-517h-146v65q-23 -36 -64.5 -56.5t-91.5 -20.5q-84 0 -138 56t-54 144v329h141v-298q0 -48 27 -78t71 -30q46 0 77 29t31 71l1 -3v309z" />
    <glyph glyph-name="udieresis" unicode="&#xfc;" horiz-adv-x="614" 
d="M200 584q-30 0 -50.5 20.5t-20.5 49.5t20.5 49.5t50.5 20.5q28 0 49 -21t21 -49t-21 -49t-49 -21zM411 584q-29 0 -49.5 20.5t-20.5 49.5t20.5 49.5t49.5 20.5t49.5 -20.5t20.5 -49.5t-20.5 -49.5t-49.5 -20.5zM407 517h146v-517h-146v65q-23 -36 -64.5 -56.5
t-91.5 -20.5q-84 0 -138 56t-54 144v329h141v-298q0 -48 27 -78t71 -30q46 0 77 29t31 71l1 -3v309z" />
    <glyph glyph-name="yacute" unicode="&#xfd;" horiz-adv-x="601" 
d="M199 575l116 156l131 -24l-148 -132h-99zM182 -180q-71 0 -130 32l31 100q41 -23 68 -23q45 0 61 28l18 38l-215 522h151l136 -363l129 363h149l-212 -543q-29 -75 -77 -114.5t-109 -39.5z" />
    <glyph glyph-name="thorn" unicode="&#xfe;" 
d="M383 529q104 0 171 -76t67 -194q0 -119 -67 -195t-171 -76q-108 0 -173 85v-245h-146v871h146v-254q65 84 173 84zM341 111q61 0 99.5 41.5t38.5 106.5t-38.5 106t-99.5 41q-53 0 -89 -35t-42 -92v-40q6 -57 42 -92.5t89 -35.5z" />
    <glyph glyph-name="ydieresis" unicode="&#xff;" horiz-adv-x="601" 
d="M197 584q-30 0 -50.5 20.5t-20.5 49.5t20.5 49.5t50.5 20.5q29 0 49.5 -21t20.5 -49t-20.5 -49t-49.5 -21zM408 584q-29 0 -49.5 20.5t-20.5 49.5t20.5 49.5t49.5 20.5t49.5 -20.5t20.5 -49.5t-20.5 -49.5t-49.5 -20.5zM182 -180q-71 0 -130 32l31 100q41 -23 68 -23
q45 0 61 28l18 38l-215 522h151l136 -363l129 363h149l-212 -543q-29 -75 -77 -114.5t-109 -39.5z" />
    <glyph glyph-name="Amacron" unicode="&#x100;" horiz-adv-x="751" 
d="M548 837v-86h-345v86h345zM572 0l-44 108h-306l-44 -108h-165l280 687h165l280 -687h-166zM273 233h204l-102 251z" />
    <glyph glyph-name="amacron" unicode="&#x101;" horiz-adv-x="581" 
d="M472 667v-86h-345v86h345zM295 529q102 0 164.5 -59.5t62.5 -160.5v-309h-141v52q-56 -64 -152 -64q-84 0 -139.5 46t-55.5 119q0 75 62 123.5t153 48.5q65 0 132 -26v10q0 45 -29.5 74t-89.5 29q-62 0 -134 -37l-49 97q112 57 216 57zM262 89q44 0 78 19.5t41 54.5v48
q-52 19 -111 19q-40 0 -67.5 -21t-27.5 -52t24.5 -49.5t62.5 -18.5z" />
    <glyph glyph-name="Abreve" unicode="&#x102;" horiz-adv-x="751" 
d="M537 817q-66 -66 -161 -66q-94 0 -161 66l63 63q44 -42 98 -42t98 42zM572 0l-44 108h-306l-44 -108h-165l280 687h165l280 -687h-166zM273 233h204l-102 251z" />
    <glyph glyph-name="abreve" unicode="&#x103;" horiz-adv-x="581" 
d="M461 647q-66 -66 -161 -66q-94 0 -161 66l63 63q44 -42 98 -42t98 42zM295 529q102 0 164.5 -59.5t62.5 -160.5v-309h-141v52q-56 -64 -152 -64q-84 0 -139.5 46t-55.5 119q0 75 62 123.5t153 48.5q65 0 132 -26v10q0 45 -29.5 74t-89.5 29q-62 0 -134 -37l-49 97
q112 57 216 57zM262 89q44 0 78 19.5t41 54.5v48q-52 19 -111 19q-40 0 -67.5 -21t-27.5 -52t24.5 -49.5t62.5 -18.5z" />
    <glyph glyph-name="Aogonek" unicode="&#x104;" horiz-adv-x="751" 
d="M775 -72l26 -68q-36 -33 -89 -33q-49 0 -80 30t-31 81q0 34 18 62h-47l-44 108h-306l-44 -108h-165l280 687h165l280 -687q-21 0 -33.5 -12.5t-12.5 -31.5q0 -41 46 -41q24 0 37 13zM273 233h204l-102 251z" />
    <glyph glyph-name="aogonek" unicode="&#x105;" horiz-adv-x="581" 
d="M559 -72l26 -68q-36 -33 -89 -33q-49 0 -80 30t-31 81q0 34 18 62h-22v52q-56 -64 -152 -64q-84 0 -139.5 46t-55.5 119q0 75 62 123.5t153 48.5q65 0 132 -26v10q0 45 -29.5 74t-89.5 29q-62 0 -134 -37l-49 97q112 57 216 57q102 0 164.5 -59.5t62.5 -160.5v-309
q-21 0 -33.5 -12.5t-12.5 -31.5q0 -41 46 -41q24 0 37 13zM262 89q44 0 78 19.5t41 54.5v48q-52 19 -111 19q-40 0 -67.5 -21t-27.5 -52t24.5 -49.5t62.5 -18.5z" />
    <glyph glyph-name="Cacute" unicode="&#x106;" horiz-adv-x="696" 
d="M280 745l116 156l131 -24l-148 -132h-99zM406 -12q-148 0 -256.5 105.5t-108.5 250.5t108.5 250t256.5 105q158 0 267 -115l-107 -96q-67 77 -160 77q-86 0 -149.5 -66t-63.5 -155q0 -90 63.5 -156t149.5 -66q93 0 160 77l107 -96q-51 -54 -121 -84.5t-146 -30.5z" />
    <glyph glyph-name="cacute" unicode="&#x107;" horiz-adv-x="548" 
d="M194 575l116 156l131 -24l-148 -132h-99zM317 -12q-115 0 -198.5 80.5t-83.5 190.5t84 190t199 80q122 0 203 -88l-97 -83q-43 48 -107 48q-57 0 -98.5 -43.5t-41.5 -102.5q0 -61 41.5 -105t99.5 -44q64 0 109 50l97 -82q-83 -91 -207 -91z" />
    <glyph glyph-name="Ccaron" unicode="&#x10c;" horiz-adv-x="696" 
d="M323 745l-105 147h90l75 -75l76 75h91l-106 -147h-121zM406 -12q-148 0 -256.5 105.5t-108.5 250.5t108.5 250t256.5 105q158 0 267 -115l-107 -96q-67 77 -160 77q-86 0 -149.5 -66t-63.5 -155q0 -90 63.5 -156t149.5 -66q93 0 160 77l107 -96q-51 -54 -121 -84.5
t-146 -30.5z" />
    <glyph glyph-name="ccaron" unicode="&#x10d;" horiz-adv-x="548" 
d="M237 575l-105 147h90l75 -75l76 75h91l-106 -147h-121zM317 -12q-115 0 -198.5 80.5t-83.5 190.5t84 190t199 80q122 0 203 -88l-97 -83q-43 48 -107 48q-57 0 -98.5 -43.5t-41.5 -102.5q0 -61 41.5 -105t99.5 -44q64 0 109 50l97 -82q-83 -91 -207 -91z" />
    <glyph glyph-name="Dcaron" unicode="&#x10e;" horiz-adv-x="761" 
d="M260 745l-105 147h90l75 -75l76 75h91l-106 -147h-121zM74 0v687h246q173 0 284 -96t111 -247t-111 -247.5t-284 -96.5h-246zM221 134h118q98 0 161 59t63 151t-63 150.5t-161 58.5h-118v-419z" />
    <glyph glyph-name="dcaron" unicode="&#x10f;" 
d="M450 443v256h146v-699h-146v74q-65 -86 -174 -86q-104 0 -171 76t-67 195q0 118 67 194t171 76q109 0 174 -86zM730 699q33 0 53 -26.5t20 -68.5q0 -68 -81 -149l-41 31q38 36 47 74q-27 0 -46.5 20.5t-19.5 48.5q0 29 20 49.5t48 20.5zM318 111q58 0 95 41.5t37 106.5
q0 64 -37 105.5t-95 41.5q-61 0 -99.5 -41t-38.5 -106t38.5 -106.5t99.5 -41.5z" />
    <glyph glyph-name="Dcroat" unicode="&#x110;" horiz-adv-x="802" 
d="M362 687q173 0 284 -96t111 -247t-111 -247.5t-284 -96.5h-246v280h-75v133h75v274h246zM381 134q98 0 161 59t63 151t-63 150.5t-161 58.5h-118v-140h157l-1 -133h-156v-146h118z" />
    <glyph glyph-name="dcroat" unicode="&#x111;" horiz-adv-x="686" 
d="M656 647v-74h-60v-573h-146v74q-65 -86 -174 -86q-104 0 -171 76t-67 195q0 118 67 194t171 76q109 0 174 -86v130h-152v74h152v52h146v-52h60zM318 111q58 0 95 41.5t37 106.5q0 64 -37 105.5t-95 41.5q-61 0 -99.5 -41t-38.5 -106t38.5 -106.5t99.5 -41.5z" />
    <glyph glyph-name="Emacron" unicode="&#x112;" horiz-adv-x="641" 
d="M505 837v-86h-345v86h345zM597 554h-381v-137h345v-133h-345v-151h381v-133h-529v687h529v-133z" />
    <glyph glyph-name="emacron" unicode="&#x113;" horiz-adv-x="593" 
d="M473 667v-86h-345v86h345zM308 117q31 0 64.5 13t54.5 33l93 -95q-34 -36 -93.5 -58t-117.5 -22q-117 0 -195.5 77t-78.5 195q0 116 76 192.5t190 76.5q121 0 189 -85.5t68 -232.5h-373q13 -43 45.5 -68.5t77.5 -25.5zM307 400q-41 0 -73.5 -22.5t-46.5 -61.5h231
q-23 84 -111 84z" />
    <glyph glyph-name="Edotaccent" unicode="&#x116;" horiz-adv-x="641" 
d="M333 754q-30 0 -50.5 20.5t-20.5 49.5t20.5 49.5t50.5 20.5q29 0 49.5 -21t20.5 -49t-20.5 -49t-49.5 -21zM597 554h-381v-137h345v-133h-345v-151h381v-133h-529v687h529v-133z" />
    <glyph glyph-name="edotaccent" unicode="&#x117;" horiz-adv-x="593" 
d="M301 584q-30 0 -50.5 20.5t-20.5 49.5t20.5 49.5t50.5 20.5q29 0 49.5 -21t20.5 -49t-20.5 -49t-49.5 -21zM308 117q31 0 64.5 13t54.5 33l93 -95q-34 -36 -93.5 -58t-117.5 -22q-117 0 -195.5 77t-78.5 195q0 116 76 192.5t190 76.5q121 0 189 -85.5t68 -232.5h-373
q13 -43 45.5 -68.5t77.5 -25.5zM307 400q-41 0 -73.5 -22.5t-46.5 -61.5h231q-23 84 -111 84z" />
    <glyph glyph-name="Eogonek" unicode="&#x118;" horiz-adv-x="641" 
d="M597 554h-381v-137h345v-133h-345v-151h381v-133h-64q-21 0 -33.5 -12.5t-12.5 -31.5q0 -41 46 -41q24 0 37 13l26 -68q-36 -33 -89 -33q-49 0 -80 30t-31 81q0 34 18 62h-346v687h529v-133z" />
    <glyph glyph-name="eogonek" unicode="&#x119;" horiz-adv-x="592" 
d="M520 68q-36 -37 -99 -60q-10 -10 -10 -28q0 -41 46 -41q24 0 37 13l26 -68q-36 -33 -89 -33q-49 0 -80 30t-31 81q0 14 3 26h-14q-117 0 -195.5 77t-78.5 195q0 116 76 192.5t190 76.5q121 0 189 -85.5t68 -232.5h-373q13 -43 45.5 -68.5t77.5 -25.5q31 0 64.5 13
t54.5 33zM307 400q-41 0 -73.5 -22.5t-46.5 -61.5h231q-23 84 -111 84z" />
    <glyph glyph-name="Ecaron" unicode="&#x11a;" horiz-adv-x="641" 
d="M394 745h-121l-105 147h90l75 -75l76 75h91zM597 554h-381v-137h345v-133h-345v-151h381v-133h-529v687h529v-133z" />
    <glyph glyph-name="ecaron" unicode="&#x11b;" horiz-adv-x="593" 
d="M362 575h-121l-105 147h90l75 -75l76 75h91zM308 117q31 0 64.5 13t54.5 33l93 -95q-34 -36 -93.5 -58t-117.5 -22q-117 0 -195.5 77t-78.5 195q0 116 76 192.5t190 76.5q121 0 189 -85.5t68 -232.5h-373q13 -43 45.5 -68.5t77.5 -25.5zM307 400q-41 0 -73.5 -22.5
t-46.5 -61.5h231q-23 84 -111 84z" />
    <glyph glyph-name="Gbreve" unicode="&#x11e;" horiz-adv-x="743" 
d="M570 817q-66 -66 -161 -66q-93 0 -161 66l63 63q44 -42 98 -42t98 42zM383 271v115h304v-283q-52 -54 -126 -84.5t-152 -30.5q-149 0 -258.5 105.5t-109.5 250.5t109.5 250t258.5 105q78 0 152 -30.5t126 -84.5l-107 -96q-31 35 -77.5 56t-93.5 21q-88 0 -152 -66
t-64 -155q0 -90 64 -156t152 -66q73 0 134 44v105h-160z" />
    <glyph glyph-name="gbreve" unicode="&#x11f;" horiz-adv-x="649" 
d="M498 647q-66 -66 -161 -66q-93 0 -161 66l63 63q44 -42 98 -42t98 42zM438 517h147v-462q0 -100 -78 -163.5t-200 -63.5q-67 0 -128 19t-100 50l51 103q56 -49 154 -49q70 0 112 30t42 80v57q-66 -80 -171 -80q-98 0 -163.5 69.5t-65.5 176.5t65.5 176t163.5 69
q52 0 98 -22.5t73 -59.5v70zM313 161q55 0 90 34.5t35 88.5t-35 88t-90 34t-90 -34t-35 -88t35 -88.5t90 -34.5z" />
    <glyph glyph-name="Gcommaaccent" unicode="&#x122;" horiz-adv-x="743" 
d="M383 271v115h304v-283q-52 -54 -126 -84.5t-152 -30.5q-149 0 -258.5 105.5t-109.5 250.5t109.5 250t258.5 105q78 0 152 -30.5t126 -84.5l-107 -96q-31 35 -77.5 56t-93.5 21q-88 0 -152 -66t-64 -155q0 -90 64 -156t152 -66q73 0 134 44v105h-160zM408 -47
q33 0 53 -26.5t20 -68.5q0 -68 -81 -149l-41 31q38 36 47 74q-27 0 -46.5 20.5t-19.5 48.5q0 29 20 49.5t48 20.5z" />
    <glyph glyph-name="gcommaaccent" unicode="&#x123;" horiz-adv-x="649" 
d="M318 585q-33 0 -53 26.5t-20 68.5q0 68 81 149l41 -31q-38 -36 -47 -74q27 0 46.5 -20.5t19.5 -48.5q0 -29 -20 -49.5t-48 -20.5zM438 517h147v-462q0 -100 -78 -163.5t-200 -63.5q-67 0 -128 19t-100 50l51 103q56 -49 154 -49q70 0 112 30t42 80v57q-66 -80 -171 -80
q-98 0 -163.5 69.5t-65.5 176.5t65.5 176t163.5 69q52 0 98 -22.5t73 -59.5v70zM313 161q55 0 90 34.5t35 88.5t-35 88t-90 34t-90 -34t-35 -88t35 -88.5t90 -34.5z" />
    <glyph glyph-name="Imacron" unicode="&#x12a;" horiz-adv-x="287" 
d="M-29 751v86h345v-86h-345zM70 0v687h148v-687h-148z" />
    <glyph glyph-name="imacron" unicode="&#x12b;" horiz-adv-x="272" 
d="M-37 581v86h345v-86h-345zM63 0v517h146v-517h-146z" />
    <glyph glyph-name="Iogonek" unicode="&#x12e;" horiz-adv-x="287" 
d="M237 -72l26 -68q-36 -33 -89 -33q-49 0 -80 30t-31 81q0 34 18 62h-11v687h148v-687h-18q-21 0 -33.5 -12.5t-12.5 -31.5q0 -41 46 -41q24 0 37 13z" />
    <glyph glyph-name="iogonek" unicode="&#x12f;" horiz-adv-x="272" 
d="M136 584q-30 0 -50.5 20.5t-20.5 49.5t20.5 49.5t50.5 20.5q28 0 49 -21t21 -49t-21 -49t-49 -21zM136 0q-21 0 -33.5 -12.5t-12.5 -31.5q0 -41 46 -41q24 0 37 13l26 -68q-36 -33 -89 -33q-49 0 -80 30t-31 81q0 63 52 92l12 -4v491h146v-517h-73z" />
    <glyph glyph-name="Idotaccent" unicode="&#x130;" horiz-adv-x="287" 
d="M144 754q-30 0 -50.5 20.5t-20.5 49.5t20.5 49.5t50.5 20.5q28 0 49 -21t21 -49t-21 -49t-49 -21zM70 0v687h148v-687h-148z" />
    <glyph glyph-name="dotlessi" unicode="&#x131;" horiz-adv-x="272" 
d="M63 0v517h146v-517h-146z" />
    <glyph glyph-name="Kcommaaccent" unicode="&#x136;" horiz-adv-x="699" 
d="M73 0v687h147v-315l278 315h179l-268 -298l287 -389h-179l-211 284l-86 -92v-192h-147zM353 -291l-41 31q38 36 47 74q-27 0 -46.5 20.5t-19.5 48.5q0 29 20 49.5t48 20.5q33 0 53 -26.5t20 -68.5q0 -68 -81 -149z" />
    <glyph glyph-name="kcommaaccent" unicode="&#x137;" horiz-adv-x="571" 
d="M567 517l-201 -229l199 -288h-168l-128 194l-62 -67v-127h-146v699h146v-405l192 223h168zM297 -47q33 0 53 -26.5t20 -68.5q0 -68 -81 -149l-41 31q38 36 47 74q-27 0 -46.5 20.5t-19.5 48.5q0 29 20 49.5t48 20.5z" />
    <glyph glyph-name="Lacute" unicode="&#x139;" horiz-adv-x="580" 
d="M331 877l-148 -132h-99l116 156zM211 133h342v-133h-490v687h148v-554z" />
    <glyph glyph-name="lacute" unicode="&#x13a;" horiz-adv-x="273" 
d="M85 757l116 156l131 -24l-148 -132h-99zM64 0v699h146v-699h-146z" />
    <glyph glyph-name="Lcaron" unicode="&#x13d;" horiz-adv-x="580" 
d="M343 559q-27 0 -46.5 20.5t-19.5 48.5q0 29 20 49.5t48 20.5q33 0 53 -26.5t20 -68.5q0 -68 -81 -149l-41 31q38 36 47 74zM211 133h342v-133h-490v687h148v-554z" />
    <glyph glyph-name="lcaron" unicode="&#x13e;" horiz-adv-x="273" 
d="M64 0v699h146v-699h-146zM336 455l-41 31q38 36 47 74q-27 0 -46.5 20.5t-19.5 48.5q0 29 20 49.5t48 20.5q33 0 53 -26.5t20 -68.5q0 -68 -81 -149z" />
    <glyph glyph-name="Lslash" unicode="&#x141;" horiz-adv-x="617" 
d="M247 133h342v-133h-490v237l-73 -37v131l73 36v320h148v-246l118 59v-130l-118 -59v-178z" />
    <glyph glyph-name="lslash" unicode="&#x142;" horiz-adv-x="353" 
d="M328 482v-130l-79 -40v-312h-146v239l-77 -39v131l77 39v329h146v-256z" />
    <glyph glyph-name="Nacute" unicode="&#x143;" horiz-adv-x="774" 
d="M284 745l116 156l131 -24l-148 -132h-99zM74 0v687h147l331 -444v444h148v-687h-148l-331 444v-444h-147z" />
    <glyph glyph-name="nacute" unicode="&#x144;" horiz-adv-x="614" 
d="M463 707l-148 -132h-99l116 156zM363 529q84 0 138 -56t54 -144v-329h-141v298q0 48 -27 78t-71 30q-46 0 -77 -29t-31 -71l-1 3v-309h-146v517h146v-65q23 36 64.5 56.5t91.5 20.5z" />
    <glyph glyph-name="Ncommaaccent" unicode="&#x145;" horiz-adv-x="774" 
d="M74 0v687h147l331 -444v444h148v-687h-148l-331 444v-444h-147zM379 -291l-41 31q38 36 47 74q-27 0 -46.5 20.5t-19.5 48.5q0 29 20 49.5t48 20.5q33 0 53 -26.5t20 -68.5q0 -68 -81 -149z" />
    <glyph glyph-name="ncommaaccent" unicode="&#x146;" horiz-adv-x="614" 
d="M363 529q84 0 138 -56t54 -144v-329h-141v298q0 48 -27 78t-71 30q-46 0 -77 -29t-31 -71l-1 3v-309h-146v517h146v-65q23 36 64.5 56.5t91.5 20.5zM319 -47q33 0 53 -26.5t20 -68.5q0 -68 -81 -149l-41 31q38 36 47 74q-27 0 -46.5 20.5t-19.5 48.5q0 29 20 49.5
t48 20.5z" />
    <glyph glyph-name="Ncaron" unicode="&#x147;" horiz-adv-x="774" 
d="M327 745l-105 147h90l75 -75l76 75h91l-106 -147h-121zM74 0v687h147l331 -444v444h148v-687h-148l-331 444v-444h-147z" />
    <glyph glyph-name="ncaron" unicode="&#x148;" horiz-adv-x="614" 
d="M380 575h-121l-105 147h90l75 -75l76 75h91zM363 529q84 0 138 -56t54 -144v-329h-141v298q0 48 -27 78t-71 30q-46 0 -77 -29t-31 -71l-1 3v-309h-146v517h146v-65q23 36 64.5 56.5t91.5 20.5z" />
    <glyph glyph-name="Omacron" unicode="&#x14c;" horiz-adv-x="812" 
d="M233 751v86h345v-86h-345zM406 -12q-148 0 -256.5 105.5t-108.5 250.5t108.5 250t256.5 105q149 0 257 -105t108 -250t-108 -250.5t-257 -105.5zM406 122q87 0 150.5 66t63.5 156q0 89 -63.5 155t-150.5 66q-86 0 -149.5 -66t-63.5 -155q0 -90 63.5 -156t149.5 -66z" />
    <glyph glyph-name="omacron" unicode="&#x14d;" horiz-adv-x="634" 
d="M145 581v86h345v-86h-345zM318 -12q-115 0 -199 80.5t-84 190.5t83.5 190t199.5 80q115 0 198 -80t83 -190t-83 -190.5t-198 -80.5zM318 111q58 0 100 44t42 104t-42 103.5t-100 43.5t-100.5 -43.5t-42.5 -103.5t42.5 -104t100.5 -44z" />
    <glyph glyph-name="Ohungarumlaut" unicode="&#x150;" horiz-adv-x="812" 
d="M229 744l116 157l131 -24l-148 -133h-99zM464 744l115 156l132 -24l-148 -132h-99zM406 -12q-148 0 -256.5 105.5t-108.5 250.5t108.5 250t256.5 105q149 0 257 -105t108 -250t-108 -250.5t-257 -105.5zM406 122q87 0 150.5 66t63.5 156q0 89 -63.5 155t-150.5 66
q-86 0 -149.5 -66t-63.5 -155q0 -90 63.5 -156t149.5 -66z" />
    <glyph glyph-name="ohungarumlaut" unicode="&#x151;" horiz-adv-x="634" 
d="M144 574l116 157l131 -24l-148 -133h-99zM379 574l115 156l132 -24l-148 -132h-99zM318 -12q-115 0 -199 80.5t-84 190.5t83.5 190t199.5 80q115 0 198 -80t83 -190t-83 -190.5t-198 -80.5zM318 111q58 0 100 44t42 104t-42 103.5t-100 43.5t-100.5 -43.5t-42.5 -103.5
t42.5 -104t100.5 -44z" />
    <glyph glyph-name="OE" unicode="&#x152;" horiz-adv-x="1040" 
d="M996 554h-381v-137h345v-133h-345v-151h381v-133h-590q-150 0 -257.5 98.5t-107.5 241.5q0 144 108 245.5t257 101.5h590v-133zM406 134h61v419h-61q-87 0 -150 -62t-63 -151q0 -88 62.5 -147t150.5 -59z" />
    <glyph glyph-name="oe" unicode="&#x153;" horiz-adv-x="1020" 
d="M736 117q31 0 64.5 13t54.5 33l93 -95q-34 -36 -93.5 -58t-117.5 -22q-131 0 -210 92q-84 -92 -209 -92q-115 0 -199 80.5t-84 190.5t83.5 190t199.5 80q123 0 208 -90q77 90 203 90q121 0 189 -85.5t68 -232.5h-373q13 -43 45.5 -68.5t77.5 -25.5zM318 111q58 0 100 44
t42 104t-42 103.5t-100 43.5t-100.5 -43.5t-42.5 -103.5t42.5 -104t100.5 -44zM735 400q-41 0 -73.5 -22.5t-46.5 -61.5h231q-23 84 -111 84z" />
    <glyph glyph-name="Racute" unicode="&#x154;" horiz-adv-x="678" 
d="M483 877l-148 -132h-99l116 156zM649 0h-168l-157 223h-109v-223h-147v687h309q112 0 185.5 -65t73.5 -167q0 -76 -42.5 -133t-113.5 -82zM215 552v-194h146q55 0 89 26.5t34 70.5t-34 70.5t-89 26.5h-146z" />
    <glyph glyph-name="racute" unicode="&#x155;" horiz-adv-x="407" 
d="M371 707l-148 -132h-99l116 156zM210 421q26 51 72 79.5t105 28.5v-123q-81 0 -129 -43t-48 -116v-247h-146v517h146v-96z" />
    <glyph glyph-name="Rcommaaccent" unicode="&#x156;" horiz-adv-x="678" 
d="M480 240l169 -240h-168l-157 223h-109v-223h-147v687h309q112 0 185.5 -65t73.5 -167q0 -76 -42.5 -133t-113.5 -82zM215 552v-194h146q55 0 89 26.5t34 70.5t-34 70.5t-89 26.5h-146zM337 -47q33 0 53 -26.5t20 -68.5q0 -68 -81 -149l-41 31q38 36 47 74
q-27 0 -46.5 20.5t-19.5 48.5q0 29 20 49.5t48 20.5z" />
    <glyph glyph-name="rcommaaccent" unicode="&#x157;" horiz-adv-x="407" 
d="M210 421q26 51 72 79.5t105 28.5v-123q-81 0 -129 -43t-48 -116v-247h-146v517h146v-96zM188 -47q33 0 53 -26.5t20 -68.5q0 -68 -81 -149l-41 31q38 36 47 74q-27 0 -46.5 20.5t-19.5 48.5q0 29 20 49.5t48 20.5z" />
    <glyph glyph-name="Rcaron" unicode="&#x158;" horiz-adv-x="678" 
d="M400 745h-121l-105 147h90l75 -75l76 75h91zM649 0h-168l-157 223h-109v-223h-147v687h309q112 0 185.5 -65t73.5 -167q0 -76 -42.5 -133t-113.5 -82zM215 552v-194h146q55 0 89 26.5t34 70.5t-34 70.5t-89 26.5h-146z" />
    <glyph glyph-name="rcaron" unicode="&#x159;" horiz-adv-x="407" 
d="M288 575h-121l-105 147h90l75 -75l76 75h91zM210 421q26 51 72 79.5t105 28.5v-123q-81 0 -129 -43t-48 -116v-247h-146v517h146v-96z" />
    <glyph glyph-name="Sacute" unicode="&#x15a;" horiz-adv-x="633" 
d="M204 745l116 156l131 -24l-148 -132h-99zM328 -12q-182 0 -305 114l85 101q104 -90 226 -90q54 0 83 21.5t29 55.5q0 35 -30.5 52t-114.5 36q-61 14 -101 28t-76 37.5t-53.5 58.5t-17.5 83q0 95 70.5 154.5t183.5 59.5q158 0 269 -95l-77 -106q-95 76 -196 76
q-46 0 -73.5 -21t-27.5 -53q0 -36 31 -53.5t116 -36.5q124 -28 185 -71.5t61 -132.5q0 -99 -71 -158.5t-196 -59.5z" />
    <glyph glyph-name="sacute" unicode="&#x15b;" horiz-adv-x="502" 
d="M147 575l116 156l131 -24l-148 -132h-99zM258 -12q-136 0 -233 78l63 101q81 -58 173 -58q29 0 48 11t19 28q0 22 -21 32.5t-70 23.5q-46 11 -75 21.5t-57.5 28t-42.5 44t-14 63.5q-1 74 55 121t147 47q108 0 204 -64l-59 -104q-75 46 -145 46q-27 0 -44 -8.5t-17 -22.5
q0 -20 17.5 -30t73.5 -25q42 -11 68 -20.5t57.5 -28t47 -48t15.5 -69.5q0 -76 -57.5 -121.5t-152.5 -45.5z" />
    <glyph glyph-name="Scedilla" unicode="&#x15e;" horiz-adv-x="633" 
d="M595 206q0 -93 -63.5 -151.5t-174.5 -65.5l-13 -32q33 0 54 -19t21 -49q0 -39 -30.5 -62.5t-77.5 -23.5q-55 0 -95 29l26 58q28 -23 61 -23q18 0 30 8.5t12 21.5q0 27 -33 27q-16 0 -30 -9l-22 21l23 54q-154 14 -260 112l85 101q104 -90 226 -90q54 0 83 21.5t29 55.5
q0 35 -30.5 52t-114.5 36q-61 14 -101 28t-76 37.5t-53.5 58.5t-17.5 83q0 95 70.5 154.5t183.5 59.5q158 0 269 -95l-77 -106q-95 76 -196 76q-46 0 -73.5 -21t-27.5 -53q0 -36 31 -53.5t116 -36.5q124 -28 185 -71.5t61 -132.5z" />
    <glyph glyph-name="scedilla" unicode="&#x15f;" horiz-adv-x="502" 
d="M468 155q0 -69 -47.5 -113t-129.5 -52l-13 -33q33 0 54 -19t21 -49q0 -39 -30.5 -62.5t-77.5 -23.5q-55 0 -95 29l26 58q28 -23 61 -23q18 0 30 8.5t12 21.5q0 27 -33 27q-16 0 -30 -9l-22 21l23 54q-114 13 -192 76l63 101q81 -58 173 -58q29 0 48 11t19 28
q0 22 -21 32.5t-70 23.5q-46 11 -75 21.5t-57.5 28t-42.5 44t-14 63.5q-1 74 55 121t147 47q108 0 204 -64l-59 -104q-75 46 -145 46q-27 0 -44 -8.5t-17 -22.5q0 -20 17.5 -30t73.5 -25q42 -11 68 -20.5t57.5 -28t47 -48t15.5 -69.5z" />
    <glyph glyph-name="Scaron" unicode="&#x160;" horiz-adv-x="633" 
d="M247 745l-105 147h90l75 -75l76 75h91l-106 -147h-121zM328 -12q-182 0 -305 114l85 101q104 -90 226 -90q54 0 83 21.5t29 55.5q0 35 -30.5 52t-114.5 36q-61 14 -101 28t-76 37.5t-53.5 58.5t-17.5 83q0 95 70.5 154.5t183.5 59.5q158 0 269 -95l-77 -106
q-95 76 -196 76q-46 0 -73.5 -21t-27.5 -53q0 -36 31 -53.5t116 -36.5q124 -28 185 -71.5t61 -132.5q0 -99 -71 -158.5t-196 -59.5z" />
    <glyph glyph-name="scaron" unicode="&#x161;" horiz-adv-x="502" 
d="M190 575l-105 147h90l75 -75l76 75h91l-106 -147h-121zM258 -12q-136 0 -233 78l63 101q81 -58 173 -58q29 0 48 11t19 28q0 22 -21 32.5t-70 23.5q-46 11 -75 21.5t-57.5 28t-42.5 44t-14 63.5q-1 74 55 121t147 47q108 0 204 -64l-59 -104q-75 46 -145 46
q-27 0 -44 -8.5t-17 -22.5q0 -20 17.5 -30t73.5 -25q42 -11 68 -20.5t57.5 -28t47 -48t15.5 -69.5q0 -76 -57.5 -121.5t-152.5 -45.5z" />
    <glyph glyph-name="uni0162" unicode="&#x162;" horiz-adv-x="639" 
d="M394 0h-34l-17 -43q33 0 54 -19t21 -49q0 -39 -30.5 -62.5t-77.5 -23.5q-55 0 -95 29l26 58q28 -23 61 -23q18 0 30 8.5t12 21.5q0 27 -33 27q-17 0 -30 -9l-22 21l27 64h-40v554h-214v133h576v-133h-214v-554z" />
    <glyph glyph-name="uni0163" unicode="&#x163;" horiz-adv-x="398" 
d="M281 -43q33 0 54 -19t21 -49q0 -39 -30.5 -62.5t-77.5 -23.5q-55 0 -95 29l26 58q28 -23 61 -23q18 0 30 8.5t12 21.5q0 27 -33 27q-17 0 -30 -9l-22 21l23 55q-55 10 -89 52t-34 103v253h-71v118h71v142h140v-142h112v-118h-112v-230q0 -25 14 -41.5t35 -16.5
q33 0 50 17l35 -95q-31 -28 -75 -39z" />
    <glyph glyph-name="Tcaron" unicode="&#x164;" horiz-adv-x="639" 
d="M260 745l-105 147h90l75 -75l76 75h91l-106 -147h-121zM246 0v554h-214v133h576v-133h-214v-554h-148z" />
    <glyph glyph-name="tcaron" unicode="&#x165;" horiz-adv-x="398" 
d="M484 699q33 0 53 -26.5t20 -68.5q0 -68 -81 -149l-41 31q38 36 47 74q-27 0 -46.5 20.5t-19.5 48.5q0 29 20 49.5t48 20.5zM286 111q33 0 50 17l35 -95q-50 -45 -119 -45q-68 0 -111.5 44t-43.5 114v253h-71v118h71v142h140v-142h112v-118h-112v-230q0 -25 14 -41.5
t35 -16.5z" />
    <glyph glyph-name="Umacron" unicode="&#x16a;" horiz-adv-x="755" 
d="M205 751v86h345v-86h-345zM378 -12q-137 0 -224 86.5t-87 222.5v390h147v-384q0 -79 46 -130t118 -51q71 0 117 51t46 130v384h148v-390q0 -136 -87 -222.5t-224 -86.5z" />
    <glyph glyph-name="umacron" unicode="&#x16b;" horiz-adv-x="614" 
d="M477 667v-86h-345v86h345zM407 517h146v-517h-146v65q-23 -36 -64.5 -56.5t-91.5 -20.5q-84 0 -138 56t-54 144v329h141v-298q0 -48 27 -78t71 -30q46 0 77 29t31 71l1 -3v309z" />
    <glyph glyph-name="Uring" unicode="&#x16e;" horiz-adv-x="755" 
d="M378 751q-47 0 -80.5 33t-33.5 80t33.5 80.5t80.5 33.5t80.5 -33.5t33.5 -80.5t-33.5 -80t-80.5 -33zM378 811q22 0 37.5 15.5t15.5 37.5t-15.5 37.5t-37.5 15.5t-37.5 -15.5t-15.5 -37.5t15.5 -37.5t37.5 -15.5zM378 -12q-137 0 -224 86.5t-87 222.5v390h147v-384
q0 -79 46 -130t118 -51q71 0 117 51t46 130v384h148v-390q0 -136 -87 -222.5t-224 -86.5z" />
    <glyph glyph-name="uring" unicode="&#x16f;" horiz-adv-x="614" 
d="M305 581q-47 0 -80.5 33t-33.5 80t33.5 80.5t80.5 33.5t80.5 -33.5t33.5 -80.5t-33.5 -80t-80.5 -33zM305 747q-22 0 -37.5 -15.5t-15.5 -37.5t15.5 -37.5t37.5 -15.5t37.5 15.5t15.5 37.5t-15.5 37.5t-37.5 15.5zM407 517h146v-517h-146v65q-23 -36 -64.5 -56.5
t-91.5 -20.5q-84 0 -138 56t-54 144v329h141v-298q0 -48 27 -78t71 -30q46 0 77 29t31 71l1 -3v309z" />
    <glyph glyph-name="Uhungarumlaut" unicode="&#x170;" horiz-adv-x="755" 
d="M191 744l116 157l131 -24l-148 -133h-99zM426 744l115 156l132 -24l-148 -132h-99zM378 -12q-137 0 -224 86.5t-87 222.5v390h147v-384q0 -79 46 -130t118 -51q71 0 117 51t46 130v384h148v-390q0 -136 -87 -222.5t-224 -86.5z" />
    <glyph glyph-name="uhungarumlaut" unicode="&#x171;" horiz-adv-x="614" 
d="M371 707l-148 -133h-99l116 157zM458 574h-99l115 156l132 -24zM407 208v309h146v-517h-146v65q-23 -36 -64.5 -56.5t-91.5 -20.5q-84 0 -138 56t-54 144v329h141v-298q0 -48 27 -78t71 -30q46 0 77 29t31 71z" />
    <glyph glyph-name="Uogonek" unicode="&#x172;" horiz-adv-x="755" 
d="M541 687h148v-390q0 -133 -84.5 -219.5t-218.5 -89.5q-13 -13 -13 -32q0 -41 46 -41q24 0 37 13l26 -68q-36 -33 -89 -33q-49 0 -80 30t-31 81q0 32 16 59q-105 23 -168 104.5t-63 195.5v390h147v-384q0 -79 46 -130t118 -51q71 0 117 51t46 130v384z" />
    <glyph glyph-name="uogonek" unicode="&#x173;" horiz-adv-x="614" 
d="M589 -72l26 -68q-36 -33 -89 -33q-49 0 -80 30t-31 81q0 34 18 62h-26v65q-23 -36 -64.5 -56.5t-91.5 -20.5q-84 0 -138 56t-54 144v329h141v-298q0 -48 27 -78t71 -30q46 0 77 29t31 71l1 -3v309h146v-517h-1q-21 0 -33.5 -12.5t-12.5 -31.5q0 -41 46 -41q24 0 37 13z
" />
    <glyph glyph-name="Wcircumflex" unicode="&#x174;" horiz-adv-x="1078" 
d="M375 745l105 147h121l106 -147h-91l-76 74l-75 -74h-90zM228 0l-208 687h160l127 -461l152 461h160l152 -461l127 461h160l-208 -687h-148l-162 472l-163 -472h-149z" />
    <glyph glyph-name="wcircumflex" unicode="&#x175;" horiz-adv-x="841" 
d="M257 575l105 147h121l106 -147h-91l-76 74l-75 -74h-90zM194 0l-176 517h143l98 -322l102 322h121l102 -322l98 322h143l-176 -517h-131l-96 325l-97 -325h-131z" />
    <glyph glyph-name="Ycircumflex" unicode="&#x176;" horiz-adv-x="694" 
d="M182 745l105 147h121l106 -147h-91l-76 74l-75 -74h-90zM273 0v248l-269 439h172l171 -301l178 301h165l-268 -439v-248h-149z" />
    <glyph glyph-name="ycircumflex" unicode="&#x177;" horiz-adv-x="601" 
d="M137 575l105 147h121l106 -147h-91l-76 74l-75 -74h-90zM182 -180q-71 0 -130 32l31 100q41 -23 68 -23q45 0 61 28l18 38l-215 522h151l136 -363l129 363h149l-212 -543q-29 -75 -77 -114.5t-109 -39.5z" />
    <glyph glyph-name="Ydieresis" unicode="&#x178;" horiz-adv-x="694" 
d="M242 754q-30 0 -50.5 20.5t-20.5 49.5t20.5 49.5t50.5 20.5q28 0 49 -21t21 -49t-21 -49t-49 -21zM453 754q-29 0 -49.5 20.5t-20.5 49.5t20.5 49.5t49.5 20.5t49.5 -20.5t20.5 -49.5t-20.5 -49.5t-49.5 -20.5zM273 0v248l-269 439h172l171 -301l178 301h165l-268 -439
v-248h-149z" />
    <glyph glyph-name="Zacute" unicode="&#x179;" horiz-adv-x="661" 
d="M232 745l116 156l131 -24l-148 -132h-99zM48 0l-1 112l361 442h-353v133h556v-112l-361 -442h365v-133h-567z" />
    <glyph glyph-name="zacute" unicode="&#x17a;" horiz-adv-x="532" 
d="M170 575l116 156l131 -24l-148 -132h-99zM41 0v103l260 290h-253v124h443v-103l-260 -290h262v-124h-452z" />
    <glyph glyph-name="Zdotaccent" unicode="&#x17b;" horiz-adv-x="661" 
d="M335 754q-30 0 -50.5 20.5t-20.5 49.5t20.5 49.5t50.5 20.5q29 0 49.5 -21t20.5 -49t-20.5 -49t-49.5 -21zM48 0l-1 112l361 442h-353v133h556v-112l-361 -442h365v-133h-567z" />
    <glyph glyph-name="zdotaccent" unicode="&#x17c;" horiz-adv-x="532" 
d="M273 584q-30 0 -50.5 20.5t-20.5 49.5t20.5 49.5t50.5 20.5q29 0 49.5 -21t20.5 -49t-20.5 -49t-49.5 -21zM41 0v103l260 290h-253v124h443v-103l-260 -290h262v-124h-452z" />
    <glyph glyph-name="Zcaron" unicode="&#x17d;" horiz-adv-x="661" 
d="M275 745l-105 147h90l75 -75l76 75h91l-106 -147h-121zM48 0l-1 112l361 442h-353v133h556v-112l-361 -442h365v-133h-567z" />
    <glyph glyph-name="zcaron" unicode="&#x17e;" horiz-adv-x="532" 
d="M213 575l-105 147h90l75 -75l76 75h91l-106 -147h-121zM41 0v103l260 290h-253v124h443v-103l-260 -290h262v-124h-452z" />
    <glyph glyph-name="uni0237" unicode="&#x237;" horiz-adv-x="272" 
d="M48 -178q-59 0 -103 21l15 108q25 -9 54 -9q22 0 35.5 16t13.5 42v517h146v-532q0 -71 -45.5 -117t-115.5 -46z" />
    <glyph glyph-name="circumflex" unicode="&#x2c6;" horiz-adv-x="458" 
d="M63 575l105 147h121l106 -147h-91l-76 74l-75 -74h-90z" />
    <glyph glyph-name="caron" unicode="&#x2c7;" horiz-adv-x="458" 
d="M168 575l-105 147h90l75 -75l76 75h91l-106 -147h-121z" />
    <glyph glyph-name="breve" unicode="&#x2d8;" horiz-adv-x="448" 
d="M224 581q-94 0 -161 66l63 63q44 -42 98 -42t98 42l63 -63q-66 -66 -161 -66z" />
    <glyph glyph-name="dotaccent" unicode="&#x2d9;" horiz-adv-x="267" 
d="M134 584q-30 0 -50.5 20.5t-20.5 49.5t20.5 49.5t50.5 20.5q28 0 49 -21t21 -49t-21 -49t-49 -21z" />
    <glyph glyph-name="ring" unicode="&#x2da;" horiz-adv-x="354" 
d="M177 581q-47 0 -80.5 33t-33.5 80t33.5 80.5t80.5 33.5t80.5 -33.5t33.5 -80.5t-33.5 -80t-80.5 -33zM177 641q22 0 37.5 15.5t15.5 37.5t-15.5 37.5t-37.5 15.5t-37.5 -15.5t-15.5 -37.5t15.5 -37.5t37.5 -15.5z" />
    <glyph glyph-name="ogonek" unicode="&#x2db;" horiz-adv-x="326" 
d="M174 -173q-49 0 -80 30t-31 81q0 63 52 92l85 -30q-21 0 -33.5 -12.5t-12.5 -31.5q0 -41 46 -41q24 0 37 13l26 -68q-36 -33 -89 -33z" />
    <glyph glyph-name="tilde" unicode="&#x2dc;" horiz-adv-x="444" 
d="M289 573q-31 0 -74 25.5t-57 25.5q-32 0 -42 -53l-73 11q17 132 111 132q31 0 75 -25.5t57 -25.5q32 0 42 52l72 -10q-15 -132 -111 -132z" />
    <glyph glyph-name="hungarumlaut" unicode="&#x2dd;" horiz-adv-x="608" 
d="M63 574l116 157l131 -24l-148 -133h-99zM298 574l115 156l132 -24l-148 -132h-99z" />
    <glyph glyph-name="uni0326" unicode="&#x326;" horiz-adv-x="0" 
d="M-155 -291l-41 31q38 36 47 74q-27 0 -46.5 20.5t-19.5 48.5q0 29 20 49.5t48 20.5q33 0 53 -26.5t20 -68.5q0 -68 -81 -149z" />
    <glyph glyph-name="Wgrave" unicode="&#x1e80;" horiz-adv-x="1078" 
d="M491 745l-148 132l131 24l116 -156h-99zM228 0l-208 687h160l127 -461l152 461h160l152 -461l127 461h160l-208 -687h-148l-162 472l-163 -472h-149z" />
    <glyph glyph-name="wgrave" unicode="&#x1e81;" horiz-adv-x="841" 
d="M373 575l-148 132l131 24l116 -156h-99zM194 0l-176 517h143l98 -322l102 322h121l102 -322l98 322h143l-176 -517h-131l-96 325l-97 -325h-131z" />
    <glyph glyph-name="Wacute" unicode="&#x1e82;" horiz-adv-x="1078" 
d="M488 745l116 156l131 -24l-148 -132h-99zM228 0l-208 687h160l127 -461l152 461h160l152 -461l127 461h160l-208 -687h-148l-162 472l-163 -472h-149z" />
    <glyph glyph-name="wacute" unicode="&#x1e83;" horiz-adv-x="841" 
d="M371 575l116 156l131 -24l-148 -132h-99zM194 0l-176 517h143l98 -322l102 322h121l102 -322l98 322h143l-176 -517h-131l-96 325l-97 -325h-131z" />
    <glyph glyph-name="Wdieresis" unicode="&#x1e84;" horiz-adv-x="1078" 
d="M435 754q-30 0 -50.5 20.5t-20.5 49.5t20.5 49.5t50.5 20.5q29 0 49.5 -21t20.5 -49t-20.5 -49t-49.5 -21zM646 754q-29 0 -49.5 20.5t-20.5 49.5t20.5 49.5t49.5 20.5t49.5 -20.5t20.5 -49.5t-20.5 -49.5t-49.5 -20.5zM228 0l-208 687h160l127 -461l152 461h160
l152 -461l127 461h160l-208 -687h-148l-162 472l-163 -472h-149z" />
    <glyph glyph-name="wdieresis" unicode="&#x1e85;" horiz-adv-x="841" 
d="M317 584q-30 0 -50.5 20.5t-20.5 49.5t20.5 49.5t50.5 20.5q29 0 49.5 -21t20.5 -49t-20.5 -49t-49.5 -21zM528 584q-29 0 -49.5 20.5t-20.5 49.5t20.5 49.5t49.5 20.5t49.5 -20.5t20.5 -49.5t-20.5 -49.5t-49.5 -20.5zM194 0l-176 517h143l98 -322l102 322h121l102 -322
l98 322h143l-176 -517h-131l-96 325l-97 -325h-131z" />
    <glyph glyph-name="uni1EB8" unicode="&#x1eb8;" horiz-adv-x="641" 
d="M597 554h-381v-137h345v-133h-345v-151h381v-133h-529v687h529v-133zM334 -71q28 0 49 -20.5t21 -49.5t-21 -49.5t-49 -20.5q-30 0 -50.5 20.5t-20.5 49.5t20.5 49.5t50.5 20.5z" />
    <glyph glyph-name="uni1EB9" unicode="&#x1eb9;" horiz-adv-x="592" 
d="M308 117q31 0 64.5 13t54.5 33l93 -95q-34 -36 -93.5 -58t-117.5 -22q-117 0 -195.5 77t-78.5 195q0 116 76 192.5t190 76.5q121 0 189 -85.5t68 -232.5h-373q13 -43 45.5 -68.5t77.5 -25.5zM307 400q-41 0 -73.5 -22.5t-46.5 -61.5h231q-23 84 -111 84zM299 -71
q29 0 49.5 -20.5t20.5 -49.5t-20.5 -49.5t-49.5 -20.5q-30 0 -50.5 20.5t-20.5 49.5t20.5 49.5t50.5 20.5z" />
    <glyph glyph-name="uni1EBC" unicode="&#x1ebc;" horiz-adv-x="641" 
d="M269 794q-32 0 -42 -53l-73 11q17 132 111 132q31 0 75 -25.5t57 -25.5q32 0 42 52l72 -10q-15 -132 -111 -132q-31 0 -74 25.5t-57 25.5zM597 554h-381v-137h345v-133h-345v-151h381v-133h-529v687h529v-133z" />
    <glyph glyph-name="uni1EBD" unicode="&#x1ebd;" horiz-adv-x="593" 
d="M237 624q-32 0 -42 -53l-73 11q17 132 111 132q31 0 75 -25.5t57 -25.5q32 0 42 52l72 -10q-15 -132 -111 -132q-31 0 -74 25.5t-57 25.5zM308 117q31 0 64.5 13t54.5 33l93 -95q-34 -36 -93.5 -58t-117.5 -22q-117 0 -195.5 77t-78.5 195q0 116 76 192.5t190 76.5
q121 0 189 -85.5t68 -232.5h-373q13 -43 45.5 -68.5t77.5 -25.5zM307 400q-41 0 -73.5 -22.5t-46.5 -61.5h231q-23 84 -111 84z" />
    <glyph glyph-name="Ygrave" unicode="&#x1ef2;" horiz-adv-x="694" 
d="M342 745l-148 132l131 24l116 -156h-99zM273 0v248l-269 439h172l171 -301l178 301h165l-268 -439v-248h-149z" />
    <glyph glyph-name="ygrave" unicode="&#x1ef3;" horiz-adv-x="601" 
d="M297 575l-148 132l131 24l116 -156h-99zM182 -180q-71 0 -130 32l31 100q41 -23 68 -23q45 0 61 28l18 38l-215 522h151l136 -363l129 363h149l-212 -543q-29 -75 -77 -114.5t-109 -39.5z" />
    <glyph glyph-name="uni2002" unicode="&#x2002;" horiz-adv-x="500" 
 />
    <glyph glyph-name="uni2003" unicode="&#x2003;" horiz-adv-x="1000" 
 />
    <glyph glyph-name="uni2004" unicode="&#x2004;" horiz-adv-x="333" 
 />
    <glyph glyph-name="uni2005" unicode="&#x2005;" horiz-adv-x="250" 
 />
    <glyph glyph-name="uni2006" unicode="&#x2006;" horiz-adv-x="166" 
 />
    <glyph glyph-name="endash" unicode="&#x2013;" horiz-adv-x="571" 
d="M45 214v122h481v-122h-481z" />
    <glyph glyph-name="emdash" unicode="&#x2014;" horiz-adv-x="876" 
d="M45 214v122h786v-122h-786z" />
    <glyph glyph-name="quoteleft" unicode="&#x2018;" horiz-adv-x="293" 
d="M158 691l52 -40q-46 -42 -61 -94q36 0 62 -26.5t26 -63.5q0 -38 -26.5 -65t-63.5 -27q-42 0 -68.5 35t-26.5 90q0 89 106 191z" />
    <glyph glyph-name="quoteright" unicode="&#x2019;" horiz-adv-x="293" 
d="M135 377l-52 40q46 42 61 94q-36 0 -62 26.5t-26 63.5q0 38 26.5 65t63.5 27q42 0 68.5 -35t26.5 -90q0 -89 -106 -191z" />
    <glyph glyph-name="quotedblleft" unicode="&#x201c;" horiz-adv-x="553" 
d="M158 691l52 -40q-46 -42 -61 -94q36 0 62 -26.5t26 -63.5q0 -38 -26.5 -65t-63.5 -27q-42 0 -68.5 35t-26.5 90q0 89 106 191zM418 691l52 -40q-46 -42 -61 -94q36 0 62 -26.5t26 -63.5q0 -38 -26.5 -65t-63.5 -27q-42 0 -68.5 35t-26.5 90q0 89 106 191z" />
    <glyph glyph-name="quotedblright" unicode="&#x201d;" horiz-adv-x="553" 
d="M135 377l-52 40q46 42 61 94q-36 0 -62 26.5t-26 63.5q0 38 26.5 65t63.5 27q42 0 68.5 -35t26.5 -90q0 -89 -106 -191zM395 377l-52 40q46 42 61 94q-36 0 -62 26.5t-26 63.5q0 38 26.5 65t63.5 27q42 0 68.5 -35t26.5 -90q0 -89 -106 -191z" />
    <glyph glyph-name="bullet" unicode="&#x2022;" horiz-adv-x="425" 
d="M214 160q-58 0 -98 40.5t-40 97.5q0 56 40 96.5t98 40.5q56 0 96.5 -40.5t40.5 -96.5q0 -57 -40.5 -97.5t-96.5 -40.5z" />
    <glyph glyph-name="ellipsis" unicode="&#x2026;" horiz-adv-x="811" 
d="M147 -12q-39 0 -66 27.5t-27 65.5q0 36 27 62.5t66 26.5q36 0 62.5 -26.5t26.5 -62.5q0 -38 -26 -65.5t-63 -27.5zM407 -12q-39 0 -66 27.5t-27 65.5q0 36 27 62.5t66 26.5q36 0 62.5 -26.5t26.5 -62.5q0 -38 -26 -65.5t-63 -27.5zM667 -12q-39 0 -66 27.5t-27 65.5
q0 36 27 62.5t66 26.5q36 0 62.5 -26.5t26.5 -62.5q0 -38 -26 -65.5t-63 -27.5z" />
    <glyph glyph-name="uni202F" unicode="&#x202f;" horiz-adv-x="279" 
 />
    <glyph glyph-name="perthousand" unicode="&#x2030;" horiz-adv-x="1220" 
d="M208 342q-75 0 -123 50t-48 125t48 126t124 51t123.5 -50.5t47.5 -125.5t-48 -125.5t-124 -50.5zM127 0l478 687h106l-478 -687h-106zM209 428q32 0 52.5 24.5t20.5 65.5q0 40 -21 64.5t-53 24.5t-52 -24.5t-20 -64.5t21 -65t52 -25zM628 -11q-76 0 -124 50.5t-48 125.5
t48.5 125.5t123.5 50.5q76 0 123.5 -51t47.5 -125q0 -75 -48.5 -125.5t-122.5 -50.5zM1011 -11q-75 0 -123.5 50.5t-48.5 125.5t48.5 125.5t123.5 50.5q76 0 123.5 -50.5t47.5 -125.5t-48 -125.5t-123 -50.5zM628 76q32 0 52.5 24.5t20.5 64.5t-21 65t-52 25
q-33 0 -53.5 -24.5t-20.5 -65.5q0 -40 21 -64.5t53 -24.5zM1011 76q32 0 52.5 24.5t20.5 64.5t-21 65t-52 25q-33 0 -53 -24.5t-20 -65.5q0 -39 20.5 -64t52.5 -25z" />
    <glyph glyph-name="guilsinglleft" unicode="&#x2039;" horiz-adv-x="346" 
d="M198 50l-165 204l165 202l112 -24l-142 -178l142 -179z" />
    <glyph glyph-name="guilsinglright" unicode="&#x203a;" horiz-adv-x="346" 
d="M148 50l-112 25l142 179l-142 178l112 24l165 -202z" />
    <glyph glyph-name="Euro" unicode="&#x20ac;" horiz-adv-x="696" 
d="M406 122q93 0 160 77l107 -96q-51 -54 -121 -84.5t-146 -30.5q-119 0 -216.5 72t-132.5 183h-73v73h58q-1 9 -1 28q0 14 2 40h-59v73h77q38 106 133.5 174t211.5 68q158 0 267 -115l-107 -96q-67 77 -160 77q-56 0 -104.5 -29.5t-77.5 -78.5h238v-73h-265q-4 -17 -4 -40
q0 -10 2 -28h267v-73h-245q27 -54 78.5 -87.5t110.5 -33.5z" />
    <glyph glyph-name="minus" unicode="&#x2212;" horiz-adv-x="603" 
d="M60 274v119h483v-119h-483z" />
    <glyph glyph-name="a.alt" 
d="M450 517h146v-517h-146v74q-65 -86 -174 -86q-104 0 -171 76t-67 195q0 118 67 194t171 76q109 0 174 -86v74zM318 111q58 0 95 41.5t37 106.5q0 64 -37 105.5t-95 41.5q-61 0 -99.5 -41t-38.5 -106t38.5 -106.5t99.5 -41.5z" />
    <glyph glyph-name="aacute.alt" 
d="M481 707l-148 -132h-99l116 156zM450 517h146v-517h-146v74q-65 -86 -174 -86q-104 0 -171 76t-67 195q0 118 67 194t171 76q109 0 174 -86v74zM318 111q58 0 95 41.5t37 106.5q0 64 -37 105.5t-95 41.5q-61 0 -99.5 -41t-38.5 -106t38.5 -106.5t99.5 -41.5z" />
    <glyph glyph-name="abreve.alt" 
d="M498 647q-66 -66 -161 -66q-93 0 -161 66l63 63q44 -42 98 -42t98 42zM450 517h146v-517h-146v74q-65 -86 -174 -86q-104 0 -171 76t-67 195q0 118 67 194t171 76q109 0 174 -86v74zM318 111q58 0 95 41.5t37 106.5q0 64 -37 105.5t-95 41.5q-61 0 -99.5 -41t-38.5 -106
t38.5 -106.5t99.5 -41.5z" />
    <glyph glyph-name="acircumflex.alt" 
d="M337 649l-75 -74h-90l105 147h121l106 -147h-91zM450 517h146v-517h-146v74q-65 -86 -174 -86q-104 0 -171 76t-67 195q0 118 67 194t171 76q109 0 174 -86v74zM318 111q58 0 95 41.5t37 106.5q0 64 -37 105.5t-95 41.5q-61 0 -99.5 -41t-38.5 -106t38.5 -106.5
t99.5 -41.5z" />
    <glyph glyph-name="adieresis.alt" 
d="M232 584q-30 0 -50.5 20.5t-20.5 49.5t20.5 49.5t50.5 20.5q28 0 49 -21t21 -49t-21 -49t-49 -21zM443 584q-29 0 -49.5 20.5t-20.5 49.5t20.5 49.5t49.5 20.5t49.5 -20.5t20.5 -49.5t-20.5 -49.5t-49.5 -20.5zM450 517h146v-517h-146v74q-65 -86 -174 -86
q-104 0 -171 76t-67 195q0 118 67 194t171 76q109 0 174 -86v74zM318 111q58 0 95 41.5t37 106.5q0 64 -37 105.5t-95 41.5q-61 0 -99.5 -41t-38.5 -106t38.5 -106.5t99.5 -41.5z" />
    <glyph glyph-name="agrave.alt" 
d="M431 575h-99l-148 132l131 24zM450 517h146v-517h-146v74q-65 -86 -174 -86q-104 0 -171 76t-67 195q0 118 67 194t171 76q109 0 174 -86v74zM318 111q58 0 95 41.5t37 106.5q0 64 -37 105.5t-95 41.5q-61 0 -99.5 -41t-38.5 -106t38.5 -106.5t99.5 -41.5z" />
    <glyph glyph-name="amacron.alt" 
d="M509 667v-86h-345v86h345zM450 517h146v-517h-146v74q-65 -86 -174 -86q-104 0 -171 76t-67 195q0 118 67 194t171 76q109 0 174 -86v74zM318 111q58 0 95 41.5t37 106.5q0 64 -37 105.5t-95 41.5q-61 0 -99.5 -41t-38.5 -106t38.5 -106.5t99.5 -41.5z" />
    <glyph glyph-name="aogonek.alt" 
d="M633 -72l26 -68q-36 -33 -89 -33q-49 0 -80 30t-31 81q0 34 18 62h-27v74q-65 -86 -174 -86q-104 0 -171 76t-67 195q0 118 67 194t171 76q109 0 174 -86v74h146v-517q-21 0 -33.5 -12.5t-12.5 -31.5q0 -41 46 -41q24 0 37 13zM318 111q58 0 95 41.5t37 106.5
q0 64 -37 105.5t-95 41.5q-61 0 -99.5 -41t-38.5 -106t38.5 -106.5t99.5 -41.5z" />
    <glyph glyph-name="aring.alt" 
d="M337 581q-47 0 -80.5 33t-33.5 80t33.5 80.5t80.5 33.5t80.5 -33.5t33.5 -80.5t-33.5 -80t-80.5 -33zM337 747q-22 0 -37.5 -15.5t-15.5 -37.5t15.5 -37.5t37.5 -15.5t37.5 15.5t15.5 37.5t-15.5 37.5t-37.5 15.5zM450 517h146v-517h-146v74q-65 -86 -174 -86
q-104 0 -171 76t-67 195q0 118 67 194t171 76q109 0 174 -86v74zM318 111q58 0 95 41.5t37 106.5q0 64 -37 105.5t-95 41.5q-61 0 -99.5 -41t-38.5 -106t38.5 -106.5t99.5 -41.5z" />
    <glyph glyph-name="atilde.alt" 
d="M273 624q-32 0 -42 -53l-73 11q17 132 111 132q31 0 75 -25.5t57 -25.5q32 0 42 52l72 -10q-15 -132 -111 -132q-31 0 -74 25.5t-57 25.5zM450 517h146v-517h-146v74q-65 -86 -174 -86q-104 0 -171 76t-67 195q0 118 67 194t171 76q109 0 174 -86v74zM318 111
q58 0 95 41.5t37 106.5q0 64 -37 105.5t-95 41.5q-61 0 -99.5 -41t-38.5 -106t38.5 -106.5t99.5 -41.5z" />
    <glyph glyph-name="ascender" 
d="M64 0v699h146v-699h-146z" />
    <glyph glyph-name="descender" 
d="M64 -172v689h146v-689h-146z" />
    </font>
</defs>
</svg>
