<?xml version="1.0" standalone="no"?>
<!DOCTYPE svg PUBLIC "-//W3C//DTD SVG 1.1//EN" "http://www.w3.org/Graphics/SVG/1.1/DTD/svg11.dtd" >
<svg>
<metadata>
Created by FontForge 20090622 at Fri Dec  8 10:34:17 2017
 By deploy user
Copyright &#194;&#169; 2016 by Chris Simpson.
</metadata>
<defs>
<font id="Metropolis-Medium" horiz-adv-x="632" >
  <font-face 
    font-family="Metropolis Medium"
    font-weight="500"
    font-stretch="normal"
    units-per-em="1000"
    panose-1="0 0 6 0 0 0 0 0 0 0"
    ascent="795"
    descent="-205"
    x-height="517"
    cap-height="687"
    bbox="-189 -280 1141 969"
    underline-thickness="20"
    underline-position="-113"
    unicode-range="U+0020-U+2212"
  />
<missing-glyph horiz-adv-x="500" 
d="M410 795v-1000h-317v1000h317zM333 728h-165v-33h65v-37h-66v-33h166v33h-66v37h66v33zM267 599h-100v-104h166v34h-66v70zM233 565v-36h-33v36h33zM333 468h-166v-33h66v-37h-66v-33h100v70h66v33zM333 408h-33v-66h-133v-34h166v100zM333 286h-100v-56h34v23h33v-47
h-100v80h-33v-113h166v113zM333 113h-166v-113h166v113zM300 80v-47h-100v47h100zM333 -23h-166v-33h70l-70 -47v-33h166v33h-102l70 47h32v33z" />
    <glyph glyph-name=".notdef" horiz-adv-x="500" 
d="M410 795v-1000h-317v1000h317zM333 728h-165v-33h65v-37h-66v-33h166v33h-66v37h66v33zM267 599h-100v-104h166v34h-66v70zM233 565v-36h-33v36h33zM333 468h-166v-33h66v-37h-66v-33h100v70h66v33zM333 408h-33v-66h-133v-34h166v100zM333 286h-100v-56h34v23h33v-47
h-100v80h-33v-113h166v113zM333 113h-166v-113h166v113zM300 80v-47h-100v47h100zM333 -23h-166v-33h70l-70 -47v-33h166v33h-102l70 47h32v33z" />
    <glyph glyph-name=".null" horiz-adv-x="0" 
 />
    <glyph glyph-name="nonmarkingreturn" horiz-adv-x="333" 
 />
    <glyph glyph-name="space" unicode=" " horiz-adv-x="286" 
 />
    <glyph glyph-name="exclam" unicode="!" horiz-adv-x="284" 
d="M110 209l-24 478h117l-25 -478h-68zM143 -12q-28 0 -47.5 20t-19.5 48q0 26 19.5 45.5t47.5 19.5q27 0 46 -19.5t19 -45.5q0 -28 -19 -48t-46 -20z" />
    <glyph glyph-name="quotedbl" unicode="&#x22;" horiz-adv-x="448" 
d="M100 417q-32 158 -32 207q0 23 16.5 40t39.5 17t39.5 -17t16.5 -40q0 -49 -32 -207h-48zM300 417q-32 158 -32 207q0 23 16.5 40t39.5 17t39.5 -17t16.5 -40q0 -49 -32 -207h-48z" />
    <glyph glyph-name="numbersign" unicode="#" horiz-adv-x="674" 
d="M619 438h-111l-48 -190h111l-19 -75h-110l-44 -173h-80l44 173h-139l-44 -173h-79l44 173h-108l19 75h107l48 190h-109l19 75h109l44 174h79l-44 -174h139l44 174h80l-44 -174h110zM380 248l48 190h-139l-48 -190h139z" />
    <glyph glyph-name="dollar" unicode="$" horiz-adv-x="620" 
d="M571 193q0 -84 -58.5 -140t-164.5 -63v-64h-84v66q-130 16 -226 107l61 75q75 -72 165 -90v223q-100 26 -150 68.5t-50 122.5q0 78 55.5 133.5t144.5 66.5v61h84v-62q111 -12 205 -94l-58 -76q-69 62 -147 79v-214q110 -27 166.5 -71t56.5 -128zM167 507
q0 -35 23.5 -55.5t73.5 -37.5v194q-43 -9 -70 -37.5t-27 -63.5zM348 79q57 5 89 34.5t32 69.5t-28.5 63t-92.5 40v-207z" />
    <glyph glyph-name="percent" unicode="%" horiz-adv-x="810" 
d="M207 347q-72 0 -117.5 49.5t-45.5 121.5q0 75 46 125t118 50t117.5 -50t45.5 -123q0 -74 -46.5 -123.5t-117.5 -49.5zM130 0l472 687h80l-473 -687h-79zM208 411q38 0 63 30.5t25 77.5t-25.5 78t-63.5 31q-39 0 -63.5 -30.5t-24.5 -78.5q0 -46 25.5 -77t63.5 -31z
M601 -10q-71 0 -117 49.5t-46 123.5q0 73 46 123t118 50t117.5 -50t45.5 -122q0 -75 -46 -124.5t-118 -49.5zM602 55q39 0 63.5 30.5t24.5 77.5t-25.5 78t-63.5 31q-39 0 -63.5 -31t-24.5 -77q0 -47 25 -78t64 -31z" />
    <glyph glyph-name="ampersand" unicode="&#x26;" horiz-adv-x="673" 
d="M636 30l-87 -40l-84 86q-91 -88 -207 -88q-97 0 -159 53t-62 143q0 130 154 198q-55 76 -55 148q0 70 52 117.5t130 47.5q73 0 122.5 -47.5t49.5 -116.5q0 -60 -39.5 -98t-124.5 -74q72 -83 140 -153q43 63 74 144l79 -36q-47 -101 -95 -169zM318 616q-39 0 -64.5 -23.5
t-25.5 -62.5q0 -49 50 -114q66 26 93 50.5t27 63.5q0 36 -22.5 61t-57.5 25zM266 70q72 0 142 65q-109 114 -170 187q-103 -53 -103 -134q0 -54 38 -86t93 -32z" />
    <glyph glyph-name="quotesingle" unicode="'" horiz-adv-x="248" 
d="M100 417q-32 158 -32 207q0 23 16.5 40t39.5 17t39.5 -17t16.5 -40q0 -49 -32 -207h-48z" />
    <glyph glyph-name="parenleft" unicode="(" horiz-adv-x="366" 
d="M272 -170q-103 83 -158.5 194.5t-55.5 240.5q0 130 55.5 241t158.5 194l52 -54q-84 -85 -124 -175.5t-40 -205.5t40.5 -205.5t123.5 -174.5z" />
    <glyph glyph-name="parenright" unicode=")" horiz-adv-x="366" 
d="M94 -170l-52 55q83 85 123.5 175.5t40.5 204.5q0 115 -40.5 205t-123.5 176l52 54q103 -83 158.5 -194t55.5 -241q0 -129 -55.5 -240.5t-158.5 -194.5z" />
    <glyph glyph-name="asterisk" unicode="*" horiz-adv-x="405" 
d="M202 366q-12 0 -20.5 7.5t-8.5 18.5q0 23 8.5 67.5t9.5 54.5q-12 -9 -44.5 -37t-51.5 -39q-9 -5 -20.5 -1.5t-17.5 13.5q-6 11 -3.5 22t11.5 16q20 12 62 27t52 19q-10 4 -52 19t-62 27q-9 5 -11.5 16t3.5 22t17.5 14.5t20.5 -2.5q19 -11 51.5 -39t44.5 -37
q-1 10 -9.5 54.5t-8.5 67.5q0 11 8.5 18.5t20.5 7.5q13 0 21.5 -7.5t8.5 -18.5q0 -23 -8.5 -67.5t-9.5 -54.5q9 7 42.5 35.5t53.5 40.5q9 5 20 1.5t18 -13.5q13 -25 -9 -38q-20 -12 -62 -27t-52 -19l51 -18.5t63 -27.5q9 -5 12 -16t-3 -22q-7 -11 -18 -14.5t-20 2.5
q-20 12 -53.5 40.5t-42.5 35.5q1 -10 9.5 -54.5t8.5 -67.5q0 -11 -8.5 -18.5t-21.5 -7.5z" />
    <glyph glyph-name="plus" unicode="+" horiz-adv-x="596" 
d="M532 378v-89h-188v-188h-92v188h-187v89h187v190h92v-190h188z" />
    <glyph glyph-name="comma" unicode="," horiz-adv-x="274" 
d="M122 -137l-42 32q42 44 55 93q-27 0 -46 19.5t-19 47.5q0 27 19.5 46.5t47.5 19.5q33 0 52.5 -26.5t19.5 -68.5q0 -35 -19.5 -71.5t-67.5 -91.5z" />
    <glyph glyph-name="hyphen" unicode="-" horiz-adv-x="369" 
d="M52 228v90h264v-90h-264z" />
    <glyph glyph-name="period" unicode="." horiz-adv-x="265" 
d="M134 -12q-28 0 -47.5 20t-19.5 48q0 26 19.5 45.5t47.5 19.5q27 0 46 -19.5t19 -45.5q0 -28 -19 -48t-46 -20z" />
    <glyph glyph-name="slash" unicode="/" horiz-adv-x="431" 
d="M-19 -74l349 817h108l-349 -817h-108z" />
    <glyph glyph-name="zero" unicode="0" horiz-adv-x="695" 
d="M348 -12q-130 0 -212 99.5t-82 256.5q0 156 82 255.5t212 99.5q128 0 210.5 -99.5t82.5 -255.5q0 -157 -82.5 -256.5t-210.5 -99.5zM348 81q83 0 136 73.5t53 189.5q0 115 -53 188.5t-136 73.5q-84 0 -137.5 -73.5t-53.5 -188.5q0 -116 53.5 -189.5t137.5 -73.5z" />
    <glyph glyph-name="one" unicode="1" horiz-adv-x="374" 
d="M183 0v567l-119 -76l-42 73l181 123h82v-687h-102z" />
    <glyph glyph-name="two" unicode="2" horiz-adv-x="596" 
d="M47 0v83l252 208q127 106 127 198q0 54 -38 86.5t-92 32.5q-99 0 -178 -102l-68 60q96 133 250 133q98 0 164 -58t66 -150q0 -69 -37 -129t-125 -132l-161 -136h329v-94h-489z" />
    <glyph glyph-name="three" unicode="3" horiz-adv-x="593" 
d="M294 -12q-84 0 -150.5 32t-108.5 85l65 67q76 -93 192 -93q66 0 106 32t40 84q0 53 -42 80.5t-120 26.5h-75v90l75 -1q67 0 107.5 28t40.5 79q0 48 -40 79t-100 31q-94 0 -173 -92l-63 62q93 121 243 121q104 0 170 -52t66 -135q0 -60 -37 -101t-95 -59q61 -14 104 -55.5
t43 -108.5q0 -88 -68.5 -144t-179.5 -56z" />
    <glyph glyph-name="four" unicode="4" horiz-adv-x="631" 
d="M387 0v158h-341l-11 81l333 448h120v-440h99v-89h-99v-158h-101zM146 247h241v325z" />
    <glyph glyph-name="five" unicode="5" horiz-adv-x="605" 
d="M299 -12q-150 0 -250 108l63 72q88 -91 190 -91q66 0 107.5 39t41.5 98t-41.5 95.5t-108.5 36.5q-81 0 -147 -50l-71 32l10 359h423v-94h-327l-6 -204q66 44 143 44q96 0 161.5 -58t65.5 -157q0 -104 -70.5 -167t-183.5 -63z" />
    <glyph glyph-name="six" unicode="6" horiz-adv-x="630" 
d="M344 434q98 0 164.5 -58t66.5 -157t-70.5 -165t-178.5 -66q-137 0 -204.5 94.5t-67.5 250.5q0 157 82.5 261.5t208.5 104.5q111 0 200 -79l-52 -78q-73 66 -149 66q-79 0 -132 -75.5t-55 -189.5q32 43 81 67t106 24zM322 74q67 0 108 42.5t41 97.5q0 61 -43 98t-108 37
q-57 0 -99 -30.5t-56 -80.5q30 -164 157 -164z" />
    <glyph glyph-name="seven" unicode="7" horiz-adv-x="601" 
d="M130 0l286 593h-361v94h480v-76l-289 -611h-116z" />
    <glyph glyph-name="eight" unicode="8" horiz-adv-x="612" 
d="M306 -12q-111 0 -185 53t-74 140q0 61 40.5 106.5t105.5 67.5q-128 51 -128 160q0 84 71.5 134t169.5 50q100 0 171 -50.5t71 -133.5q0 -111 -128 -160q65 -23 105 -68.5t40 -105.5q0 -87 -74 -140t-185 -53zM306 393q53 3 97 33t44 78q0 45 -40.5 75.5t-100.5 30.5
t-100 -30t-40 -76q0 -49 43.5 -78.5t96.5 -32.5zM306 77q67 0 112 31.5t45 81.5q0 51 -50 84t-107 35q-56 -2 -106.5 -35t-50.5 -84q0 -50 45 -81.5t112 -31.5z" />
    <glyph glyph-name="nine" unicode="9" horiz-adv-x="630" 
d="M304 699q137 0 204.5 -94.5t67.5 -250.5q0 -157 -82.5 -261.5t-208.5 -104.5q-111 0 -200 79l52 78q73 -66 149 -66q79 0 132 75.5t55 189.5q-32 -43 -81 -67t-106 -24q-98 0 -164.5 58t-66.5 157t70.5 165t178.5 66zM310 338q57 0 99 30.5t56 80.5q-30 164 -157 164
q-67 0 -108 -42.5t-41 -97.5q0 -61 43 -98t108 -37z" />
    <glyph glyph-name="colon" unicode=":" horiz-adv-x="265" 
d="M134 385q-28 0 -47.5 20t-19.5 48q0 26 19.5 45.5t47.5 19.5q27 0 46 -19.5t19 -45.5q0 -28 -19 -48t-46 -20zM134 -12q-28 0 -47.5 20t-19.5 48q0 26 19.5 45.5t47.5 19.5q27 0 46 -19.5t19 -45.5q0 -28 -19 -48t-46 -20z" />
    <glyph glyph-name="semicolon" unicode=";" horiz-adv-x="274" 
d="M137 385q-28 0 -47.5 20t-19.5 48q0 26 19.5 45.5t47.5 19.5q27 0 46 -19.5t19 -45.5q0 -28 -19 -48t-46 -20zM122 -137l-42 32q42 44 55 93q-27 0 -46 19.5t-19 47.5q0 27 19.5 46.5t47.5 19.5q33 0 52.5 -26.5t19.5 -68.5q0 -35 -19.5 -71.5t-67.5 -91.5z" />
    <glyph glyph-name="less" unicode="&#x3c;" horiz-adv-x="588" 
d="M514 86l-459 219v77l459 219v-86l-371 -171l371 -171v-87z" />
    <glyph glyph-name="equal" unicode="=" horiz-adv-x="596" 
d="M65 402v89h467v-89h-467zM65 179v89h467v-89h-467z" />
    <glyph glyph-name="greater" unicode="&#x3e;" horiz-adv-x="588" 
d="M74 86v87l371 171l-371 171v86l459 -219v-77z" />
    <glyph glyph-name="question" unicode="?" horiz-adv-x="506" 
d="M179 207v180q82 6 134 38.5t52 76.5q0 43 -34 74.5t-90 31.5q-86 0 -156 -84l-62 62q94 113 229 113q95 0 155 -53.5t60 -133.5q0 -67 -54 -122t-138 -73v-110h-96zM227 -12q-28 0 -47.5 20t-19.5 48q0 26 19.5 45.5t47.5 19.5q27 0 46 -19.5t19 -45.5q0 -28 -19 -48
t-46 -20z" />
    <glyph glyph-name="at" unicode="@" horiz-adv-x="881" 
d="M426 -116q-157 0 -269.5 110.5t-112.5 264.5q0 170 123.5 293t294.5 123q155 0 265 -104.5t110 -248.5q0 -116 -56.5 -180.5t-131.5 -64.5q-47 0 -77.5 22t-40.5 61q-65 -83 -157 -83q-73 0 -120 49t-47 127q0 102 70.5 176t159.5 74q93 0 136 -78l12 63l85 -6
q-52 -265 -52 -287q0 -30 16.5 -46t45.5 -16q46 0 82.5 48t36.5 141q0 130 -99 223t-240 93q-154 0 -265.5 -111.5t-111.5 -266.5q0 -140 101 -240t244 -100q114 0 215 61l19 -28q-109 -69 -236 -69zM400 150q62 0 102 45t47 115q6 56 -19 88t-78 32q-63 0 -109 -51
t-46 -120q0 -49 28 -79t75 -30z" />
    <glyph glyph-name="A" unicode="A" horiz-adv-x="754" 
d="M616 0l-60 140h-358l-60 -140h-112l295 687h112l295 -687h-112zM237 231h280l-140 326z" />
    <glyph glyph-name="B" unicode="B" horiz-adv-x="688" 
d="M87 0v687h326q86 0 141 -48t55 -123q0 -97 -98 -152q126 -61 126 -177q0 -82 -59.5 -134.5t-151.5 -52.5h-339zM188 401h200q52 0 85 27.5t33 70.5t-33 71t-85 28h-200v-197zM188 89h215q58 0 94.5 31.5t36.5 81.5t-36.5 81.5t-94.5 31.5h-215v-226z" />
    <glyph glyph-name="C" unicode="C" horiz-adv-x="685" 
d="M405 -12q-145 0 -251 105.5t-106 250.5t106 250t251 105q148 0 253 -108l-71 -68q-76 83 -182 83q-103 0 -178 -78t-75 -184q0 -107 75 -185t178 -78q106 0 182 83l71 -68q-106 -108 -253 -108z" />
    <glyph glyph-name="D" unicode="D" horiz-adv-x="762" 
d="M87 0v687h237q167 0 273.5 -96t106.5 -247t-106.5 -247.5t-273.5 -96.5h-237zM188 92h142q119 0 194.5 70.5t75.5 181.5q0 110 -75.5 180.5t-194.5 70.5h-142v-503z" />
    <glyph glyph-name="E" unicode="E" 
d="M580 593h-403v-196h364v-94h-364v-209h403v-94h-505v687h505v-94z" />
    <glyph glyph-name="F" unicode="F" horiz-adv-x="617" 
d="M580 593h-403v-200h364v-94h-364v-299h-102v687h505v-94z" />
    <glyph glyph-name="G" unicode="G" horiz-adv-x="744" 
d="M392 282v88h284v-274q-48 -49 -122.5 -78.5t-147.5 -29.5q-145 0 -251.5 105.5t-106.5 250.5q0 144 106.5 249.5t251.5 105.5q74 0 148 -29t122 -79l-71 -68q-35 38 -90 60.5t-109 22.5q-103 0 -178.5 -77.5t-75.5 -184.5t75 -185t179 -78q96 0 170 57v144h-184z" />
    <glyph glyph-name="H" unicode="H" horiz-adv-x="727" 
d="M551 687h101v-687h-101v303h-375v-303h-101v687h101v-290h375v290z" />
    <glyph glyph-name="I" unicode="I" horiz-adv-x="253" 
d="M76 0v687h101v-687h-101z" />
    <glyph glyph-name="J" unicode="J" horiz-adv-x="542" 
d="M239 -12q-63 0 -124 32t-94 82l71 69q19 -40 59 -65.5t83 -25.5q56 0 91.5 41.5t35.5 106.5v459h101v-463q0 -104 -62.5 -170t-160.5 -66z" />
    <glyph glyph-name="K" unicode="K" horiz-adv-x="673" 
d="M86 0v687h101v-358l324 358h129l-282 -309l301 -378h-127l-245 308l-100 -107v-201h-101z" />
    <glyph glyph-name="L" unicode="L" horiz-adv-x="563" 
d="M168 94h364v-94h-466v687h102v-593z" />
    <glyph glyph-name="M" unicode="M" horiz-adv-x="858" 
d="M87 0v687h101l241 -449l241 449h101v-687h-101v489l-241 -449l-241 449v-489h-101z" />
    <glyph glyph-name="N" unicode="N" horiz-adv-x="771" 
d="M87 0v687h101l395 -521v521h101v-687h-101l-395 521v-521h-101z" />
    <glyph glyph-name="O" unicode="O" horiz-adv-x="809" 
d="M405 -12q-145 0 -251 105.5t-106 250.5t106 250t251 105t250 -105t105 -250t-105 -250.5t-250 -105.5zM405 81q103 0 177.5 78t74.5 185t-74.5 184.5t-177.5 77.5t-178 -78t-75 -184q0 -107 75 -185t178 -78z" />
    <glyph glyph-name="P" unicode="P" horiz-adv-x="649" 
d="M75 0v687h289q109 0 182 -63t73 -161t-73 -161t-182 -63h-188v-239h-101zM176 333h174q75 0 120.5 35t45.5 95t-45.5 95t-120.5 35h-174v-260z" />
    <glyph glyph-name="Q" unicode="Q" horiz-adv-x="809" 
d="M760 344q0 -118 -73 -213l73 -63l-58 -68l-77 67q-98 -79 -220 -79q-145 0 -251 105.5t-106 250.5t106 250t251 105t250 -105t105 -250zM405 81q80 0 146 50l-98 85l58 68l101 -88q45 69 45 148q0 107 -74.5 184.5t-177.5 77.5t-178 -78t-75 -184q0 -107 75 -185t178 -78
z" />
    <glyph glyph-name="R" unicode="R" horiz-adv-x="659" 
d="M619 463q0 -78 -48.5 -135.5t-127.5 -78.5l175 -249h-116l-168 239h-158v-239h-101v687h289q109 0 182 -63t73 -161zM176 593v-260h174q75 0 120.5 35t45.5 95t-45.5 95t-120.5 35h-174z" />
    <glyph glyph-name="S" unicode="S" horiz-adv-x="620" 
d="M321 -11q-168 0 -283 110l61 75q101 -96 226 -96q68 0 106 30.5t38 74.5q0 46 -39.5 70.5t-132.5 45.5q-118 28 -175.5 70.5t-57.5 128.5q0 87 67.5 144.5t170.5 57.5q141 0 251 -97l-58 -76q-92 84 -197 84q-56 0 -93.5 -31t-37.5 -73q0 -45 39 -68t133 -45
q115 -27 173.5 -71t58.5 -130q0 -90 -66 -147t-184 -57z" />
    <glyph glyph-name="T" unicode="T" horiz-adv-x="633" 
d="M266 0v593h-225v94h552v-94h-226v-593h-101z" />
    <glyph glyph-name="U" unicode="U" horiz-adv-x="749" 
d="M375 -12q-130 0 -212.5 84.5t-82.5 216.5v398h101v-396q0 -92 54.5 -151.5t139.5 -59.5t139 59.5t54 151.5v396h102v-398q0 -132 -83 -216.5t-212 -84.5z" />
    <glyph glyph-name="V" unicode="V" horiz-adv-x="754" 
d="M616 687h112l-295 -687h-112l-295 687h112l239 -557z" />
    <glyph glyph-name="W" unicode="W" horiz-adv-x="1080" 
d="M257 0l-226 687h112l169 -524l172 524h112l172 -524l169 524h112l-226 -687h-101l-181 547l-183 -547h-101z" />
    <glyph glyph-name="X" unicode="X" horiz-adv-x="702" 
d="M671 687l-259 -343l259 -344h-123l-198 263l-198 -263h-121l259 343l-259 344h122l198 -263l199 263h121z" />
    <glyph glyph-name="Y" unicode="Y" horiz-adv-x="679" 
d="M288 0v269l-275 418h122l205 -322l208 322h117l-273 -418v-269h-104z" />
    <glyph glyph-name="Z" unicode="Z" horiz-adv-x="646" 
d="M55 0l-1 79l397 514h-389v94h528v-79l-397 -514h401v-94h-539z" />
    <glyph glyph-name="bracketleft" unicode="[" horiz-adv-x="372" 
d="M78 -124v849h247v-70h-165v-709h165v-70h-247z" />
    <glyph glyph-name="backslash" unicode="\" horiz-adv-x="431" 
d="M341 -74l-349 817h108l349 -817h-108z" />
    <glyph glyph-name="bracketright" unicode="]" horiz-adv-x="372" 
d="M47 -124v70h166v709h-166v70h248v-849h-248z" />
    <glyph glyph-name="asciicircum" unicode="^" horiz-adv-x="489" 
d="M50 413l159 274h73l157 -274h-78l-117 207l-117 -207h-77z" />
    <glyph glyph-name="underscore" unicode="_" horiz-adv-x="592" 
d="M-2 -145v73h596v-73h-596z" />
    <glyph glyph-name="grave" unicode="`" horiz-adv-x="342" 
d="M207 576l-144 128l96 20l120 -148h-72z" />
    <glyph glyph-name="a" unicode="a" horiz-adv-x="576" 
d="M289 529q102 0 159 -59t57 -157v-313h-97v71q-28 -39 -75.5 -61t-96.5 -22q-84 0 -137.5 45t-53.5 120q0 76 60 124t147 48q74 0 156 -28v16q0 57 -31 95.5t-102 38.5q-62 0 -146 -43l-36 73q104 52 196 52zM255 66q52 0 96.5 25.5t56.5 70.5v69q-65 20 -141 20
q-53 0 -90 -27t-37 -68t32.5 -65.5t82.5 -24.5z" />
    <glyph glyph-name="b" unicode="b" horiz-adv-x="645" 
d="M359 529q103 0 170.5 -76t67.5 -194q0 -119 -67.5 -195t-170.5 -76q-120 0 -184 102v-90h-98v699h98v-271q64 101 184 101zM335 74q71 0 116.5 52t45.5 133t-45.5 132.5t-116.5 51.5q-70 0 -115 -51.5t-45 -132.5t45 -133t115 -52z" />
    <glyph glyph-name="c" unicode="c" horiz-adv-x="544" 
d="M316 -12q-110 0 -191 80.5t-81 190.5t81 190t192 80q110 0 190 -80l-67 -62q-50 56 -124 56q-70 0 -121 -54.5t-51 -129.5q0 -76 51 -130.5t122 -54.5q74 0 126 58l67 -61q-81 -83 -194 -83z" />
    <glyph glyph-name="d" unicode="d" horiz-adv-x="645" 
d="M470 699h98v-699h-98v90q-64 -102 -184 -102q-103 0 -170.5 76t-67.5 195q0 118 67.5 194t170.5 76q120 0 184 -101v271zM310 74q70 0 115 52t45 133t-45 132.5t-115 51.5q-71 0 -116.5 -51.5t-45.5 -132.5t45.5 -133t116.5 -52z" />
    <glyph glyph-name="e" unicode="e" horiz-adv-x="594" 
d="M309 76q40 0 82.5 16t65.5 40l62 -64q-34 -36 -93.5 -58t-115.5 -22q-110 0 -188 77.5t-78 194.5q0 115 75 192t183 77q117 0 183 -82.5t66 -222.5h-407q10 -66 54.5 -107t110.5 -41zM306 441q-60 0 -104.5 -37.5t-56.5 -100.5h310q-9 63 -47 100.5t-102 37.5z" />
    <glyph glyph-name="f" unicode="f" horiz-adv-x="360" 
d="M208 574v-57h122v-84h-122v-433h-97v433h-78v84h78v62q0 62 38 101.5t98 39.5q58 0 103 -37l-36 -66q-19 19 -53 19q-22 0 -37.5 -17.5t-15.5 -44.5z" />
    <glyph glyph-name="g" unicode="g" horiz-adv-x="640" 
d="M465 517h99v-462q0 -100 -73.5 -163.5t-188.5 -63.5q-131 0 -216 69l39 74q60 -57 162 -57q83 0 130.5 38t47.5 105v75q-65 -94 -183 -94q-102 0 -168.5 69t-66.5 177t66.5 176.5t168.5 68.5q58 0 105.5 -25.5t77.5 -69.5v83zM307 124q69 0 113.5 45t44.5 115
t-44.5 114.5t-113.5 44.5t-113 -44.5t-44 -114.5t44 -115t113 -45z" />
    <glyph glyph-name="h" unicode="h" horiz-adv-x="599" 
d="M335 529q85 0 139.5 -56t54.5 -144v-329h-97v312q0 58 -33.5 94.5t-85.5 36.5q-59 0 -101 -36t-42 -86v-321h-98v699h98v-259q24 40 68.5 64.5t96.5 24.5z" />
    <glyph glyph-name="i" unicode="i" horiz-adv-x="241" 
d="M121 603q-25 0 -42.5 18t-17.5 42t17.5 41.5t42.5 17.5q24 0 41.5 -18t17.5 -41q0 -24 -17.5 -42t-41.5 -18zM71 0v517h99v-517h-99z" />
    <glyph glyph-name="j" unicode="j" horiz-adv-x="241" 
d="M121 603q-25 0 -42.5 18t-17.5 42t17.5 41.5t42.5 17.5q24 0 41.5 -18t17.5 -41q0 -24 -17.5 -42t-41.5 -18zM32 -178q-50 0 -88 18l13 77q25 -10 60 -10q24 0 39 17.5t15 44.5v548h99v-553q0 -62 -38.5 -102t-99.5 -40z" />
    <glyph glyph-name="k" unicode="k" horiz-adv-x="552" 
d="M542 517l-223 -234l213 -283h-118l-162 217l-83 -84v-133h-98v699h98v-446l253 264h120z" />
    <glyph glyph-name="l" unicode="l" horiz-adv-x="242" 
d="M72 0v699h98v-699h-98z" />
    <glyph glyph-name="m" unicode="m" horiz-adv-x="906" 
d="M650 529q81 0 133.5 -56t52.5 -144v-329h-97v314q0 57 -30.5 93t-79.5 36q-56 0 -91 -33.5t-35 -86.5v-323h-97v314q0 57 -30.5 93t-79.5 36q-56 0 -91 -33.5t-35 -86.5v-323h-99v517h99v-72q20 39 58.5 61.5t87.5 22.5q56 0 99.5 -28t66.5 -76q18 48 63.5 76t104.5 28z
" />
    <glyph glyph-name="n" unicode="n" horiz-adv-x="599" 
d="M335 529q85 0 139.5 -56t54.5 -144v-329h-97v312q0 58 -33.5 94.5t-85.5 36.5q-54 0 -95 -31t-47 -77v-335h-99v517h99v-75q24 39 68 63t96 24z" />
    <glyph glyph-name="o" unicode="o" 
d="M317 -12q-111 0 -192 80.5t-81 190.5t81 190t192 80q110 0 190.5 -80t80.5 -190t-80.5 -190.5t-190.5 -80.5zM317 74q70 0 121 54.5t51 130.5q0 75 -51 129.5t-121 54.5q-71 0 -122.5 -54.5t-51.5 -129.5q0 -76 51.5 -130.5t122.5 -54.5z" />
    <glyph glyph-name="p" unicode="p" horiz-adv-x="645" 
d="M359 529q103 0 170.5 -76t67.5 -194q0 -119 -67.5 -195t-170.5 -76q-120 0 -184 102v-262h-98v689h98v-89q64 101 184 101zM335 74q71 0 116.5 52t45.5 133t-45.5 132.5t-116.5 51.5q-70 0 -115 -51.5t-45 -132.5t45 -133t115 -52z" />
    <glyph glyph-name="q" unicode="q" horiz-adv-x="645" 
d="M470 517h98v-689h-98v262q-64 -102 -184 -102q-103 0 -170.5 76t-67.5 195q0 118 67.5 194t170.5 76q120 0 184 -101v89zM310 74q70 0 115 52t45 133t-45 132.5t-115 51.5q-71 0 -116.5 -51.5t-45.5 -132.5t45.5 -133t116.5 -52z" />
    <glyph glyph-name="r" unicode="r" horiz-adv-x="393" 
d="M176 418q25 52 75.5 81.5t116.5 29.5v-86q-80 0 -132.5 -40.5t-59.5 -108.5v-294h-99v517h99v-99z" />
    <glyph glyph-name="s" unicode="s" horiz-adv-x="498" 
d="M259 -12q-126 0 -221 77l47 71q87 -63 175 -63q44 0 71 18.5t27 48.5q0 14 -6.5 25.5t-15.5 18.5t-27 14.5t-30.5 11.5t-37.5 11q-95 26 -136.5 58.5t-41.5 92.5q-1 71 52 114t136 43q100 0 191 -60l-44 -73q-77 48 -147 48q-40 0 -65.5 -16.5t-25.5 -44.5t24 -42.5
t95 -36.5q42 -12 65 -21t53 -27t44 -44.5t14 -63.5q0 -72 -55 -116t-141 -44z" />
    <glyph glyph-name="t" unicode="t" horiz-adv-x="379" 
d="M314 93l36 -68q-45 -37 -103 -37q-60 0 -98 39.5t-38 101.5v304h-78v84h78v142h97v-142h122v-84h-122v-297q0 -27 15.5 -44.5t37.5 -17.5q34 0 53 19z" />
    <glyph glyph-name="u" unicode="u" horiz-adv-x="599" 
d="M428 517h99v-517h-99v75q-24 -39 -68 -63t-96 -24q-85 0 -139.5 56t-54.5 144v329h97v-312q0 -58 33.5 -94.5t85.5 -36.5q54 0 95 31t47 77v335z" />
    <glyph glyph-name="v" unicode="v" horiz-adv-x="577" 
d="M244 0l-222 517h107l161 -402l158 402h107l-218 -517h-93z" />
    <glyph glyph-name="w" unicode="w" horiz-adv-x="836" 
d="M203 0l-174 517h101l119 -385l128 385h84l128 -385l118 385h101l-174 -517h-91l-124 384l-125 -384h-91z" />
    <glyph glyph-name="x" unicode="x" horiz-adv-x="556" 
d="M530 0h-111l-141 190l-142 -190h-110l197 264l-189 253h112l132 -178l133 178h110l-188 -252z" />
    <glyph glyph-name="y" unicode="y" horiz-adv-x="596" 
d="M163 -180q-56 0 -98 22l22 76q29 -16 63 -16q48 0 71 40l26 55l-222 520h106l166 -408l157 408h103l-228 -564q-52 -131 -166 -133z" />
    <glyph glyph-name="z" unicode="z" horiz-adv-x="520" 
d="M50 0v74l290 354h-284v89h414v-74l-290 -354h292v-89h-422z" />
    <glyph glyph-name="braceleft" unicode="{" horiz-adv-x="398" 
d="M348 -166q-118 12 -165 52t-47 121l1 134q0 49 -22.5 70.5t-74.5 21.5v66q53 0 75 21.5t22 70.5l-1 133q0 82 47.5 121.5t164.5 51.5l8 -65q-86 -13 -112 -34.5t-26 -79.5l1 -138q0 -88 -76 -114q76 -27 76 -115l-1 -137q0 -58 26.5 -80t111.5 -35z" />
    <glyph glyph-name="bar" unicode="|" horiz-adv-x="285" 
d="M106 -74v817h73v-817h-73z" />
    <glyph glyph-name="braceright" unicode="}" horiz-adv-x="398" 
d="M50 -166l-8 65q85 13 111.5 35t26.5 80l-1 137q0 88 76 115q-76 26 -76 114l1 138q0 58 -26 79.5t-112 34.5l8 65q118 -12 165 -51.5t47 -121.5l-1 -133q0 -49 22.5 -70.5t75.5 -21.5v-66q-52 0 -75 -21.5t-23 -70.5l1 -134q0 -81 -47 -121t-165 -52z" />
    <glyph glyph-name="asciitilde" unicode="~" horiz-adv-x="447" 
d="M289 298q-31 0 -72 30.5t-58 30.5q-37 0 -47 -63l-55 9q16 123 101 123q32 0 73 -30.5t57 -30.5q36 0 47 63l55 -8q-16 -124 -101 -124z" />
    <glyph glyph-name="exclamdown" unicode="&#xa1;" horiz-adv-x="284" 
d="M141 529q28 0 47.5 -20t19.5 -48q0 -26 -19.5 -45.5t-47.5 -19.5q-27 0 -46 19.5t-19 45.5q0 28 19 48t46 20zM174 308l24 -478h-117l25 478h68z" />
    <glyph glyph-name="cent" unicode="&#xa2;" horiz-adv-x="544" 
d="M510 71q-69 -71 -164 -81v-64h-84v68q-92 19 -155 94t-63 171q0 95 62.5 169.5t155.5 94.5v66h84v-62q94 -11 161 -78l-67 -62q-36 42 -94 53v-363q59 11 97 55zM144 259q0 -60 33 -108t85 -67v349q-52 -18 -85 -66.5t-33 -107.5z" />
    <glyph glyph-name="sterling" unicode="&#xa3;" horiz-adv-x="631" 
d="M225 88h364v-88h-537v46l72 42v171h-64v71h64v133q0 103 62.5 169.5t160.5 66.5q70 0 130.5 -32t87.5 -82l-71 -69q-13 40 -52.5 65.5t-88.5 25.5q-56 0 -92 -41.5t-36 -106.5v-129h189v-71h-189v-171z" />
    <glyph glyph-name="yen" unicode="&#xa5;" horiz-adv-x="679" 
d="M665 687l-235 -360h158v-71h-196v-75h196v-71h-196v-110h-104v110h-196v71h196v75h-196v71h158l-237 360h122l205 -322l208 322h117z" />
    <glyph glyph-name="dieresis" unicode="&#xa8;" horiz-adv-x="433" 
d="M117 593q-23 0 -38.5 15.5t-15.5 38.5q0 22 15.5 38t38.5 16q22 0 38 -16.5t16 -37.5q0 -23 -15.5 -38.5t-38.5 -15.5zM316 593q-23 0 -38.5 15.5t-15.5 38.5q0 22 15.5 38t38.5 16q22 0 38 -16.5t16 -37.5q0 -22 -16 -38t-38 -16z" />
    <glyph glyph-name="guillemotleft" unicode="&#xab;" horiz-adv-x="543" 
d="M204 51l-163 201l163 199l82 -19l-146 -179l146 -182zM414 51l-163 201l163 199l82 -19l-146 -179l146 -182z" />
    <glyph glyph-name="macron" unicode="&#xaf;" horiz-adv-x="448" 
d="M63 590v65h322v-65h-322z" />
    <glyph glyph-name="acute" unicode="&#xb4;" horiz-adv-x="342" 
d="M63 576l119 148l97 -20l-144 -128h-72z" />
    <glyph glyph-name="paragraph" unicode="&#xb6;" horiz-adv-x="648" 
d="M270 -50v342q-106 0 -170 54t-64 142t62 143t159 55h285v-736h-77v664h-118v-664h-77z" />
    <glyph glyph-name="periodcentered" unicode="&#xb7;" horiz-adv-x="247" 
d="M124 212q-26 0 -44 18t-18 44t18 43.5t44 17.5t44 -17.5t18 -43.5t-18 -44t-44 -18z" />
    <glyph glyph-name="cedilla" unicode="&#xb8;" horiz-adv-x="318" 
d="M184 -44q31 0 51 -19t20 -48q0 -37 -29 -60t-73 -23q-52 0 -90 29l21 47q29 -23 64 -23q20 0 33.5 10t13.5 25q0 32 -37 32q-17 0 -32 -10l-18 18l32 77h60l-24 -55h8z" />
    <glyph glyph-name="guillemotright" unicode="&#xbb;" horiz-adv-x="543" 
d="M130 51l-82 20l145 182l-145 179l82 19l162 -199zM340 51l-82 20l145 182l-145 179l82 19l162 -199z" />
    <glyph glyph-name="questiondown" unicode="&#xbf;" horiz-adv-x="506" 
d="M279 529q28 0 47.5 -20t19.5 -48q0 -26 -19.5 -45.5t-47.5 -19.5q-27 0 -46 19.5t-19 45.5q0 28 19 48t46 20zM327 310v-180q-82 -6 -134 -38.5t-52 -76.5q0 -43 34 -74.5t90 -31.5q86 0 156 84l62 -62q-94 -113 -229 -113q-95 0 -155 53.5t-60 133.5q0 67 54 122t138 73
v110h96z" />
    <glyph glyph-name="Agrave" unicode="&#xc0;" horiz-adv-x="754" 
d="M415 746h-72l-144 128l96 20zM616 0l-60 140h-358l-60 -140h-112l295 687h112l295 -687h-112zM237 231h280l-140 326z" />
    <glyph glyph-name="Aacute" unicode="&#xc1;" horiz-adv-x="754" 
d="M555 874l-144 -128h-72l119 148zM616 0l-60 140h-358l-60 -140h-112l295 687h112l295 -687h-112zM237 231h280l-140 326z" />
    <glyph glyph-name="Acircumflex" unicode="&#xc2;" horiz-adv-x="754" 
d="M377 828l-77 -82h-68l102 140h87l103 -140h-69zM616 0l-60 140h-358l-60 -140h-112l295 687h112l295 -687h-112zM237 231h280l-140 326z" />
    <glyph glyph-name="Atilde" unicode="&#xc3;" horiz-adv-x="754" 
d="M312 805q-37 0 -47 -63l-55 9q16 123 101 123q31 0 72 -30.5t58 -30.5q36 0 47 63l55 -8q-15 -124 -101 -124q-32 0 -73 30.5t-57 30.5zM616 0l-60 140h-358l-60 -140h-112l295 687h112l295 -687h-112zM237 231h280l-140 326z" />
    <glyph glyph-name="Adieresis" unicode="&#xc4;" horiz-adv-x="754" 
d="M278 763q-23 0 -38.5 15.5t-15.5 38.5q0 22 15.5 38t38.5 16q22 0 38 -16.5t16 -37.5q0 -23 -16 -38.5t-38 -15.5zM477 763q-23 0 -38.5 15.5t-15.5 38.5q0 22 15.5 38t38.5 16q22 0 38 -16.5t16 -37.5q0 -22 -16 -38t-38 -16zM616 0l-60 140h-358l-60 -140h-112l295 687
h112l295 -687h-112zM237 231h280l-140 326z" />
    <glyph glyph-name="Aring" unicode="&#xc5;" horiz-adv-x="754" 
d="M377 756q-44 0 -75.5 31.5t-31.5 75.5t31.5 75t75.5 31t75 -31t31 -75t-31 -75.5t-75 -31.5zM377 920q-23 0 -40 -17t-17 -40t17 -40t40 -17t40 17t17 40t-17 40t-40 17zM616 0l-60 140h-358l-60 -140h-112l295 687h112l295 -687h-112zM237 231h280l-140 326z" />
    <glyph glyph-name="AE" unicode="&#xc6;" horiz-adv-x="1042" 
d="M990 593h-403v-196h364v-94h-364v-209h403v-94h-505v143h-259l-83 -143h-117l396 687h568v-94zM276 231h209v361z" />
    <glyph glyph-name="Ccedilla" unicode="&#xc7;" horiz-adv-x="685" 
d="M405 81q106 0 182 83l71 -68q-98 -99 -233 -107l-14 -33h8q31 0 51 -19t20 -48q0 -37 -29 -60t-73 -23q-52 0 -90 29l21 47q29 -23 64 -23q20 0 33.5 10t13.5 25q0 32 -37 32q-17 0 -32 -10l-18 18l23 56q-132 15 -225 117.5t-93 236.5q0 145 106 250t251 105
q148 0 253 -108l-71 -68q-76 83 -182 83q-103 0 -178 -78t-75 -184q0 -107 75 -185t178 -78z" />
    <glyph glyph-name="Egrave" unicode="&#xc8;" 
d="M406 746h-72l-144 128l96 20zM580 593h-403v-196h364v-94h-364v-209h403v-94h-505v687h505v-94z" />
    <glyph glyph-name="Eacute" unicode="&#xc9;" 
d="M456 874l-144 -128h-72l119 148zM580 593h-403v-196h364v-94h-364v-209h403v-94h-505v687h505v-94z" />
    <glyph glyph-name="Ecircumflex" unicode="&#xca;" 
d="M328 828l-77 -82h-68l102 140h87l103 -140h-69zM580 593h-403v-196h364v-94h-364v-209h403v-94h-505v687h505v-94z" />
    <glyph glyph-name="Edieresis" unicode="&#xcb;" 
d="M229 763q-23 0 -38.5 15.5t-15.5 38.5q0 22 15.5 38t38.5 16q22 0 38 -16.5t16 -37.5q0 -23 -15.5 -38.5t-38.5 -15.5zM428 763q-23 0 -38.5 15.5t-15.5 38.5q0 22 15.5 38t38.5 16q22 0 38 -16.5t16 -37.5q0 -22 -16 -38t-38 -16zM580 593h-403v-196h364v-94h-364v-209
h403v-94h-505v687h505v-94z" />
    <glyph glyph-name="Igrave" unicode="&#xcc;" horiz-adv-x="253" 
d="M92 746l-144 128l96 20l120 -148h-72zM76 0v687h101v-687h-101z" />
    <glyph glyph-name="Iacute" unicode="&#xcd;" horiz-adv-x="253" 
d="M90 746l119 148l97 -20l-144 -128h-72zM76 0v687h101v-687h-101z" />
    <glyph glyph-name="Icircumflex" unicode="&#xce;" horiz-adv-x="253" 
d="M-18 746l102 140h87l103 -140h-69l-78 82l-77 -82h-68zM76 0v687h101v-687h-101z" />
    <glyph glyph-name="Idieresis" unicode="&#xcf;" horiz-adv-x="253" 
d="M28 763q-23 0 -38.5 15.5t-15.5 38.5q0 22 15.5 38t38.5 16q22 0 38 -16.5t16 -37.5q0 -23 -16 -38.5t-38 -15.5zM227 763q-23 0 -38.5 15.5t-15.5 38.5q0 22 15.5 38t38.5 16q22 0 38 -16.5t16 -37.5q0 -22 -16 -38t-38 -16zM76 0v687h101v-687h-101z" />
    <glyph glyph-name="Eth" unicode="&#xd0;" horiz-adv-x="787" 
d="M349 687q167 0 273.5 -96t106.5 -247t-106.5 -247.5t-273.5 -96.5h-237v302h-70v94h70v291h237zM355 92q119 0 194.5 70.5t75.5 181.5q0 110 -75.5 180.5t-194.5 70.5h-142v-199h188l-1 -94h-187v-210h142z" />
    <glyph glyph-name="Ntilde" unicode="&#xd1;" horiz-adv-x="771" 
d="M451 744q-31 0 -72 30.5t-58 30.5q-37 0 -47 -63l-55 9q16 123 101 123q32 0 73 -30.5t57 -30.5q36 0 47 63l55 -8q-16 -124 -101 -124zM87 0v687h101l395 -521v521h101v-687h-101l-395 521v-521h-101z" />
    <glyph glyph-name="Ograve" unicode="&#xd2;" horiz-adv-x="809" 
d="M372 746l-144 128l96 20l120 -148h-72zM405 -12q-145 0 -251 105.5t-106 250.5t106 250t251 105t250 -105t105 -250t-105 -250.5t-250 -105.5zM405 81q103 0 177.5 78t74.5 185t-74.5 184.5t-177.5 77.5t-178 -78t-75 -184q0 -107 75 -185t178 -78z" />
    <glyph glyph-name="Oacute" unicode="&#xd3;" horiz-adv-x="809" 
d="M367 746l119 148l97 -20l-144 -128h-72zM405 -12q-145 0 -251 105.5t-106 250.5t106 250t251 105t250 -105t105 -250t-105 -250.5t-250 -105.5zM405 81q103 0 177.5 78t74.5 185t-74.5 184.5t-177.5 77.5t-178 -78t-75 -184q0 -107 75 -185t178 -78z" />
    <glyph glyph-name="Ocircumflex" unicode="&#xd4;" horiz-adv-x="809" 
d="M260 746l102 140h87l103 -140h-69l-78 82l-77 -82h-68zM405 -12q-145 0 -251 105.5t-106 250.5t106 250t251 105t250 -105t105 -250t-105 -250.5t-250 -105.5zM405 81q103 0 177.5 78t74.5 185t-74.5 184.5t-177.5 77.5t-178 -78t-75 -184q0 -107 75 -185t178 -78z" />
    <glyph glyph-name="Otilde" unicode="&#xd5;" horiz-adv-x="809" 
d="M470 744q-32 0 -73 30.5t-57 30.5q-37 0 -47 -63l-55 9q16 123 101 123q31 0 72 -30.5t58 -30.5q36 0 47 63l55 -8q-15 -124 -101 -124zM405 -12q-145 0 -251 105.5t-106 250.5t106 250t251 105t250 -105t105 -250t-105 -250.5t-250 -105.5zM405 81q103 0 177.5 78
t74.5 185t-74.5 184.5t-177.5 77.5t-178 -78t-75 -184q0 -107 75 -185t178 -78z" />
    <glyph glyph-name="Odieresis" unicode="&#xd6;" horiz-adv-x="809" 
d="M306 763q-23 0 -38.5 15.5t-15.5 38.5q0 22 15.5 38t38.5 16q22 0 38 -16.5t16 -37.5q0 -23 -16 -38.5t-38 -15.5zM505 763q-23 0 -38.5 15.5t-15.5 38.5q0 22 15.5 38t38.5 16q22 0 38 -16.5t16 -37.5q0 -22 -16 -38t-38 -16zM405 -12q-145 0 -251 105.5t-106 250.5
t106 250t251 105t250 -105t105 -250t-105 -250.5t-250 -105.5zM405 81q103 0 177.5 78t74.5 185t-74.5 184.5t-177.5 77.5t-178 -78t-75 -184q0 -107 75 -185t178 -78z" />
    <glyph glyph-name="multiply" unicode="&#xd7;" horiz-adv-x="548" 
d="M471 202l-65 -65l-133 133l-132 -132l-64 62l133 133l-134 134l65 65l134 -134l133 133l62 -64l-132 -132z" />
    <glyph glyph-name="Oslash" unicode="&#xd8;" horiz-adv-x="809" 
d="M664 585q96 -104 96 -241q0 -145 -105 -250.5t-250 -105.5q-110 0 -202 65l-46 -53h-100l89 102q-98 103 -98 242q0 145 106 250t251 105q109 0 202 -64l45 52h100zM152 344q0 -94 59 -166l332 384q-63 44 -138 44q-103 0 -178 -78t-75 -184zM405 81q103 0 177.5 78
t74.5 185q0 92 -58 166l-333 -384q64 -45 139 -45z" />
    <glyph glyph-name="Ugrave" unicode="&#xd9;" horiz-adv-x="749" 
d="M381 746l-144 128l96 20l120 -148h-72zM375 -12q-130 0 -212.5 84.5t-82.5 216.5v398h101v-396q0 -92 54.5 -151.5t139.5 -59.5t139 59.5t54 151.5v396h102v-398q0 -132 -83 -216.5t-212 -84.5z" />
    <glyph glyph-name="Uacute" unicode="&#xda;" horiz-adv-x="749" 
d="M287 746l119 148l97 -20l-144 -128h-72zM375 -12q-130 0 -212.5 84.5t-82.5 216.5v398h101v-396q0 -92 54.5 -151.5t139.5 -59.5t139 59.5t54 151.5v396h102v-398q0 -132 -83 -216.5t-212 -84.5z" />
    <glyph glyph-name="Ucircumflex" unicode="&#xdb;" horiz-adv-x="749" 
d="M230 746l102 140h87l103 -140h-69l-78 82l-77 -82h-68zM375 -12q-130 0 -212.5 84.5t-82.5 216.5v398h101v-396q0 -92 54.5 -151.5t139.5 -59.5t139 59.5t54 151.5v396h102v-398q0 -132 -83 -216.5t-212 -84.5z" />
    <glyph glyph-name="Udieresis" unicode="&#xdc;" horiz-adv-x="749" 
d="M276 763q-23 0 -38.5 15.5t-15.5 38.5q0 22 15.5 38t38.5 16q22 0 38 -16.5t16 -37.5q0 -23 -16 -38.5t-38 -15.5zM475 763q-23 0 -38.5 15.5t-15.5 38.5q0 22 15.5 38t38.5 16q22 0 38 -16.5t16 -37.5q0 -22 -16 -38t-38 -16zM375 -12q-130 0 -212.5 84.5t-82.5 216.5
v398h101v-396q0 -92 54.5 -151.5t139.5 -59.5t139 59.5t54 151.5v396h102v-398q0 -132 -83 -216.5t-212 -84.5z" />
    <glyph glyph-name="Yacute" unicode="&#xdd;" horiz-adv-x="679" 
d="M252 746l119 148l97 -20l-144 -128h-72zM288 0v269l-275 418h122l205 -322l208 322h117l-273 -418v-269h-104z" />
    <glyph glyph-name="Thorn" unicode="&#xde;" horiz-adv-x="649" 
d="M75 0v687h102v-117h187q109 0 182 -63t73 -161t-72.5 -161t-182.5 -63h-188v-122h-101zM176 216h174q75 0 120.5 35t45.5 95t-45.5 94.5t-120.5 34.5h-174v-259z" />
    <glyph glyph-name="germandbls" unicode="&#xdf;" horiz-adv-x="588" 
d="M77 0v524q0 82 62 134t159 52t158 -52t61 -134q0 -105 -97 -160q125 -62 125 -177q0 -82 -59.5 -134.5t-151.5 -52.5h-82v89h60q57 0 93.5 31.5t36.5 81.5t-36.5 81.5t-93.5 31.5h-60v86h44q51 0 84.5 31t33.5 75q0 47 -33 77t-85 30q-51 0 -84.5 -31t-33.5 -80v-503
h-101z" />
    <glyph glyph-name="agrave" unicode="&#xe0;" horiz-adv-x="576" 
d="M373 576h-72l-144 128l96 20zM289 529q102 0 159 -59t57 -157v-313h-97v71q-28 -39 -75.5 -61t-96.5 -22q-84 0 -137.5 45t-53.5 120q0 76 60 124t147 48q74 0 156 -28v16q0 57 -31 95.5t-102 38.5q-62 0 -146 -43l-36 73q104 52 196 52zM255 66q52 0 96.5 25.5
t56.5 70.5v69q-65 20 -141 20q-53 0 -90 -27t-37 -68t32.5 -65.5t82.5 -24.5z" />
    <glyph glyph-name="aacute" unicode="&#xe1;" horiz-adv-x="576" 
d="M423 704l-144 -128h-72l119 148zM289 529q102 0 159 -59t57 -157v-313h-97v71q-28 -39 -75.5 -61t-96.5 -22q-84 0 -137.5 45t-53.5 120q0 76 60 124t147 48q74 0 156 -28v16q0 57 -31 95.5t-102 38.5q-62 0 -146 -43l-36 73q104 52 196 52zM255 66q52 0 96.5 25.5
t56.5 70.5v69q-65 20 -141 20q-53 0 -90 -27t-37 -68t32.5 -65.5t82.5 -24.5z" />
    <glyph glyph-name="acircumflex" unicode="&#xe2;" horiz-adv-x="576" 
d="M295 658l-77 -82h-68l102 140h87l103 -140h-69zM289 529q102 0 159 -59t57 -157v-313h-97v71q-28 -39 -75.5 -61t-96.5 -22q-84 0 -137.5 45t-53.5 120q0 76 60 124t147 48q74 0 156 -28v16q0 57 -31 95.5t-102 38.5q-62 0 -146 -43l-36 73q104 52 196 52zM255 66
q52 0 96.5 25.5t56.5 70.5v69q-65 20 -141 20q-53 0 -90 -27t-37 -68t32.5 -65.5t82.5 -24.5z" />
    <glyph glyph-name="atilde" unicode="&#xe3;" horiz-adv-x="576" 
d="M230 635q-37 0 -47 -63l-55 9q16 123 101 123q31 0 72 -30.5t58 -30.5q36 0 47 63l55 -8q-15 -124 -101 -124q-32 0 -73 30.5t-57 30.5zM289 529q102 0 159 -59t57 -157v-313h-97v71q-28 -39 -75.5 -61t-96.5 -22q-84 0 -137.5 45t-53.5 120q0 76 60 124t147 48
q74 0 156 -28v16q0 57 -31 95.5t-102 38.5q-62 0 -146 -43l-36 73q104 52 196 52zM255 66q52 0 96.5 25.5t56.5 70.5v69q-65 20 -141 20q-53 0 -90 -27t-37 -68t32.5 -65.5t82.5 -24.5z" />
    <glyph glyph-name="adieresis" unicode="&#xe4;" horiz-adv-x="576" 
d="M196 593q-23 0 -38.5 15.5t-15.5 38.5q0 22 15.5 38t38.5 16q22 0 38 -16.5t16 -37.5q0 -23 -16 -38.5t-38 -15.5zM395 593q-23 0 -38.5 15.5t-15.5 38.5q0 22 15.5 38t38.5 16q22 0 38 -16.5t16 -37.5q0 -22 -16 -38t-38 -16zM289 529q102 0 159 -59t57 -157v-313h-97
v71q-28 -39 -75.5 -61t-96.5 -22q-84 0 -137.5 45t-53.5 120q0 76 60 124t147 48q74 0 156 -28v16q0 57 -31 95.5t-102 38.5q-62 0 -146 -43l-36 73q104 52 196 52zM255 66q52 0 96.5 25.5t56.5 70.5v69q-65 20 -141 20q-53 0 -90 -27t-37 -68t32.5 -65.5t82.5 -24.5z" />
    <glyph glyph-name="aring" unicode="&#xe5;" horiz-adv-x="576" 
d="M295 586q-44 0 -75.5 31.5t-31.5 75.5t31.5 75t75.5 31t75 -31t31 -75t-31 -75.5t-75 -31.5zM295 750q-23 0 -40 -17t-17 -40t17 -40t40 -17t40 17t17 40t-17 40t-40 17zM289 529q102 0 159 -59t57 -157v-313h-97v71q-28 -39 -75.5 -61t-96.5 -22q-84 0 -137.5 45
t-53.5 120q0 76 60 124t147 48q74 0 156 -28v16q0 57 -31 95.5t-102 38.5q-62 0 -146 -43l-36 73q104 52 196 52zM255 66q52 0 96.5 25.5t56.5 70.5v69q-65 20 -141 20q-53 0 -90 -27t-37 -68t32.5 -65.5t82.5 -24.5z" />
    <glyph glyph-name="ae" unicode="&#xe6;" horiz-adv-x="958" 
d="M673 76q40 0 82.5 16t65.5 40l62 -64q-34 -36 -93.5 -58t-115.5 -22q-64 0 -120 28.5t-93 78.5q-33 -50 -88.5 -78.5t-122.5 -28.5q-95 0 -150 44t-55 121q0 76 60 124t147 48q74 0 156 -28v16q0 57 -31 95.5t-102 38.5q-62 0 -146 -43l-36 73q104 52 192 52
q130 0 183 -94q76 94 198 94q117 0 183 -82.5t66 -222.5h-407q10 -66 54.5 -107t110.5 -41zM670 441q-60 0 -104.5 -37.5t-56.5 -100.5h310q-9 63 -47 100.5t-102 37.5zM263 66q60 0 102.5 38t42.5 91v36q-65 20 -141 20q-53 0 -90 -27t-37 -68q0 -42 33 -66t90 -24z" />
    <glyph glyph-name="ccedilla" unicode="&#xe7;" horiz-adv-x="544" 
d="M510 71q-73 -75 -172 -82l-15 -33h8q31 0 51 -19t20 -48q0 -37 -29 -60t-73 -23q-52 0 -90 29l21 47q29 -23 64 -23q20 0 33.5 10t13.5 25q0 32 -37 32q-17 0 -32 -10l-18 18l24 57q-99 14 -167 91t-68 177q0 110 81 190t192 80q110 0 190 -80l-67 -62q-50 56 -124 56
q-70 0 -121 -54.5t-51 -129.5q0 -76 51 -130.5t122 -54.5q74 0 126 58z" />
    <glyph glyph-name="egrave" unicode="&#xe8;" horiz-adv-x="594" 
d="M380 576h-72l-144 128l96 20zM309 76q40 0 82.5 16t65.5 40l62 -64q-34 -36 -93.5 -58t-115.5 -22q-110 0 -188 77.5t-78 194.5q0 115 75 192t183 77q117 0 183 -82.5t66 -222.5h-407q10 -66 54.5 -107t110.5 -41zM306 441q-60 0 -104.5 -37.5t-56.5 -100.5h310
q-9 63 -47 100.5t-102 37.5z" />
    <glyph glyph-name="eacute" unicode="&#xe9;" horiz-adv-x="594" 
d="M430 704l-144 -128h-72l119 148zM309 76q40 0 82.5 16t65.5 40l62 -64q-34 -36 -93.5 -58t-115.5 -22q-110 0 -188 77.5t-78 194.5q0 115 75 192t183 77q117 0 183 -82.5t66 -222.5h-407q10 -66 54.5 -107t110.5 -41zM306 441q-60 0 -104.5 -37.5t-56.5 -100.5h310
q-9 63 -47 100.5t-102 37.5z" />
    <glyph glyph-name="ecircumflex" unicode="&#xea;" horiz-adv-x="594" 
d="M302 658l-77 -82h-68l102 140h87l103 -140h-69zM309 76q40 0 82.5 16t65.5 40l62 -64q-34 -36 -93.5 -58t-115.5 -22q-110 0 -188 77.5t-78 194.5q0 115 75 192t183 77q117 0 183 -82.5t66 -222.5h-407q10 -66 54.5 -107t110.5 -41zM306 441q-60 0 -104.5 -37.5
t-56.5 -100.5h310q-9 63 -47 100.5t-102 37.5z" />
    <glyph glyph-name="edieresis" unicode="&#xeb;" horiz-adv-x="594" 
d="M203 593q-23 0 -38.5 15.5t-15.5 38.5q0 22 15.5 38t38.5 16q22 0 38 -16.5t16 -37.5q0 -23 -15.5 -38.5t-38.5 -15.5zM402 593q-23 0 -38.5 15.5t-15.5 38.5q0 22 15.5 38t38.5 16q22 0 38 -16.5t16 -37.5q0 -22 -16 -38t-38 -16zM309 76q40 0 82.5 16t65.5 40l62 -64
q-34 -36 -93.5 -58t-115.5 -22q-110 0 -188 77.5t-78 194.5q0 115 75 192t183 77q117 0 183 -82.5t66 -222.5h-407q10 -66 54.5 -107t110.5 -41zM306 441q-60 0 -104.5 -37.5t-56.5 -100.5h310q-9 63 -47 100.5t-102 37.5z" />
    <glyph glyph-name="igrave" unicode="&#xec;" horiz-adv-x="241" 
d="M86 576l-144 128l96 20l120 -148h-72zM71 0v517h99v-517h-99z" />
    <glyph glyph-name="iacute" unicode="&#xed;" horiz-adv-x="241" 
d="M84 576l119 148l97 -20l-144 -128h-72zM71 0v517h99v-517h-99z" />
    <glyph glyph-name="icircumflex" unicode="&#xee;" horiz-adv-x="241" 
d="M-24 576l102 140h87l103 -140h-69l-78 82l-77 -82h-68zM71 0v517h99v-517h-99z" />
    <glyph glyph-name="idieresis" unicode="&#xef;" horiz-adv-x="241" 
d="M22 593q-23 0 -38.5 15.5t-15.5 38.5q0 22 15.5 38t38.5 16q22 0 38 -16.5t16 -37.5q0 -23 -16 -38.5t-38 -15.5zM221 593q-23 0 -38.5 15.5t-15.5 38.5q0 22 15.5 38t38.5 16q22 0 38 -16.5t16 -37.5q0 -22 -16 -38t-38 -16zM71 0v517h99v-517h-99z" />
    <glyph glyph-name="eth" unicode="&#xf0;" horiz-adv-x="629" 
d="M399 611q90 -84 132.5 -163.5t42.5 -174.5q0 -125 -72 -205t-186 -80q-115 0 -188 73t-73 188q0 109 64.5 178.5t165.5 69.5q96 0 163 -78q-39 76 -130 155l-117 -52l-29 67l81 36q-32 24 -78 55l95 39l69 -55l96 43l30 -67zM316 75q70 0 114 47.5t44 122.5q0 72 -44 120
t-117 48q-70 0 -114.5 -47t-44.5 -120q0 -75 45.5 -123t116.5 -48z" />
    <glyph glyph-name="ntilde" unicode="&#xf1;" horiz-adv-x="599" 
d="M250 635q-37 0 -47 -63l-55 9q16 123 101 123q31 0 72 -30.5t58 -30.5q36 0 47 63l55 -8q-15 -124 -101 -124q-32 0 -73 30.5t-57 30.5zM335 529q85 0 139.5 -56t54.5 -144v-329h-97v312q0 58 -33.5 94.5t-85.5 36.5q-54 0 -95 -31t-47 -77v-335h-99v517h99v-75
q24 39 68 63t96 24z" />
    <glyph glyph-name="ograve" unicode="&#xf2;" 
d="M323 576l-144 128l96 20l120 -148h-72zM317 -12q-111 0 -192 80.5t-81 190.5t81 190t192 80q110 0 190.5 -80t80.5 -190t-80.5 -190.5t-190.5 -80.5zM317 74q70 0 121 54.5t51 130.5q0 75 -51 129.5t-121 54.5q-71 0 -122.5 -54.5t-51.5 -129.5q0 -76 51.5 -130.5
t122.5 -54.5z" />
    <glyph glyph-name="oacute" unicode="&#xf3;" 
d="M229 576l119 148l97 -20l-144 -128h-72zM317 -12q-111 0 -192 80.5t-81 190.5t81 190t192 80q110 0 190.5 -80t80.5 -190t-80.5 -190.5t-190.5 -80.5zM317 74q70 0 121 54.5t51 130.5q0 75 -51 129.5t-121 54.5q-71 0 -122.5 -54.5t-51.5 -129.5q0 -76 51.5 -130.5
t122.5 -54.5z" />
    <glyph glyph-name="ocircumflex" unicode="&#xf4;" 
d="M172 576l102 140h87l103 -140h-69l-78 82l-77 -82h-68zM317 -12q-111 0 -192 80.5t-81 190.5t81 190t192 80q110 0 190.5 -80t80.5 -190t-80.5 -190.5t-190.5 -80.5zM317 74q70 0 121 54.5t51 130.5q0 75 -51 129.5t-121 54.5q-71 0 -122.5 -54.5t-51.5 -129.5
q0 -76 51.5 -130.5t122.5 -54.5z" />
    <glyph glyph-name="otilde" unicode="&#xf5;" 
d="M382 574q-32 0 -73 30.5t-57 30.5q-37 0 -47 -63l-55 9q16 123 101 123q31 0 72 -30.5t58 -30.5q36 0 47 63l55 -8q-15 -124 -101 -124zM317 -12q-111 0 -192 80.5t-81 190.5t81 190t192 80q110 0 190.5 -80t80.5 -190t-80.5 -190.5t-190.5 -80.5zM317 74q70 0 121 54.5
t51 130.5q0 75 -51 129.5t-121 54.5q-71 0 -122.5 -54.5t-51.5 -129.5q0 -76 51.5 -130.5t122.5 -54.5z" />
    <glyph glyph-name="odieresis" unicode="&#xf6;" 
d="M218 593q-23 0 -38.5 15.5t-15.5 38.5q0 22 15.5 38t38.5 16q22 0 38 -16.5t16 -37.5q0 -23 -16 -38.5t-38 -15.5zM417 593q-23 0 -38.5 15.5t-15.5 38.5q0 22 15.5 38t38.5 16q22 0 38 -16.5t16 -37.5q0 -22 -16 -38t-38 -16zM317 -12q-111 0 -192 80.5t-81 190.5
t81 190t192 80q110 0 190.5 -80t80.5 -190t-80.5 -190.5t-190.5 -80.5zM317 74q70 0 121 54.5t51 130.5q0 75 -51 129.5t-121 54.5q-71 0 -122.5 -54.5t-51.5 -129.5q0 -76 51.5 -130.5t122.5 -54.5z" />
    <glyph glyph-name="divide" unicode="&#xf7;" horiz-adv-x="596" 
d="M300 442q-27 0 -45.5 19t-18.5 45q0 25 18.5 43.5t45.5 18.5q25 0 43 -18.5t18 -43.5q0 -26 -18 -45t-43 -19zM65 290v89h467v-89h-467zM300 100q-27 0 -45.5 19t-18.5 45q0 25 18.5 43.5t45.5 18.5q25 0 43 -18.5t18 -43.5q0 -26 -18 -45t-43 -19z" />
    <glyph glyph-name="oslash" unicode="&#xf8;" 
d="M518 439q70 -80 70 -180q0 -110 -80.5 -190.5t-190.5 -80.5q-81 0 -147 44l-28 -32h-92l66 77q-72 80 -72 182q0 110 81 190t192 80q79 0 148 -45l28 33h92zM143 259q0 -61 35 -110l228 267q-41 27 -89 27q-71 0 -122.5 -54.5t-51.5 -129.5zM317 74q70 0 121 54.5
t51 130.5q0 60 -33 107l-228 -265q41 -27 89 -27z" />
    <glyph glyph-name="ugrave" unicode="&#xf9;" horiz-adv-x="599" 
d="M376 576h-72l-144 128l96 20zM428 517h99v-517h-99v75q-24 -39 -68 -63t-96 -24q-85 0 -139.5 56t-54.5 144v329h97v-312q0 -58 33.5 -94.5t85.5 -36.5q54 0 95 31t47 77v335z" />
    <glyph glyph-name="uacute" unicode="&#xfa;" horiz-adv-x="599" 
d="M426 704l-144 -128h-72l119 148zM428 517h99v-517h-99v75q-24 -39 -68 -63t-96 -24q-85 0 -139.5 56t-54.5 144v329h97v-312q0 -58 33.5 -94.5t85.5 -36.5q54 0 95 31t47 77v335z" />
    <glyph glyph-name="ucircumflex" unicode="&#xfb;" horiz-adv-x="599" 
d="M298 658l-77 -82h-68l102 140h87l103 -140h-69zM428 517h99v-517h-99v75q-24 -39 -68 -63t-96 -24q-85 0 -139.5 56t-54.5 144v329h97v-312q0 -58 33.5 -94.5t85.5 -36.5q54 0 95 31t47 77v335z" />
    <glyph glyph-name="udieresis" unicode="&#xfc;" horiz-adv-x="599" 
d="M199 593q-23 0 -38.5 15.5t-15.5 38.5q0 22 15.5 38t38.5 16q22 0 38 -16.5t16 -37.5q0 -23 -15.5 -38.5t-38.5 -15.5zM398 593q-23 0 -38.5 15.5t-15.5 38.5q0 22 15.5 38t38.5 16q22 0 38 -16.5t16 -37.5q0 -22 -16 -38t-38 -16zM428 517h99v-517h-99v75
q-24 -39 -68 -63t-96 -24q-85 0 -139.5 56t-54.5 144v329h97v-312q0 -58 33.5 -94.5t85.5 -36.5q54 0 95 31t47 77v335z" />
    <glyph glyph-name="yacute" unicode="&#xfd;" horiz-adv-x="596" 
d="M209 576l119 148l97 -20l-144 -128h-72zM163 -180q-56 0 -98 22l22 76q29 -16 63 -16q48 0 71 40l26 55l-222 520h106l166 -408l157 408h103l-228 -564q-52 -131 -166 -133z" />
    <glyph glyph-name="thorn" unicode="&#xfe;" horiz-adv-x="645" 
d="M359 529q103 0 170.5 -76t67.5 -194q0 -119 -67.5 -195t-170.5 -76q-120 0 -184 102v-262h-98v871h98v-271q64 101 184 101zM335 74q71 0 116.5 52t45.5 133t-45.5 132.5t-116.5 51.5q-70 0 -115 -51.5t-45 -132.5t45 -133t115 -52z" />
    <glyph glyph-name="ydieresis" unicode="&#xff;" horiz-adv-x="596" 
d="M198 593q-23 0 -38.5 15.5t-15.5 38.5q0 22 15.5 38t38.5 16q22 0 38 -16.5t16 -37.5q0 -23 -16 -38.5t-38 -15.5zM397 593q-23 0 -38.5 15.5t-15.5 38.5q0 22 15.5 38t38.5 16q22 0 38 -16.5t16 -37.5q0 -22 -16 -38t-38 -16zM163 -180q-56 0 -98 22l22 76
q29 -16 63 -16q48 0 71 40l26 55l-222 520h106l166 -408l157 408h103l-228 -564q-52 -131 -166 -133z" />
    <glyph glyph-name="Amacron" unicode="&#x100;" horiz-adv-x="754" 
d="M538 825v-65h-322v65h322zM616 0l-60 140h-358l-60 -140h-112l295 687h112l295 -687h-112zM237 231h280l-140 326z" />
    <glyph glyph-name="amacron" unicode="&#x101;" horiz-adv-x="576" 
d="M456 655v-65h-322v65h322zM289 529q102 0 159 -59t57 -157v-313h-97v71q-28 -39 -75.5 -61t-96.5 -22q-84 0 -137.5 45t-53.5 120q0 76 60 124t147 48q74 0 156 -28v16q0 57 -31 95.5t-102 38.5q-62 0 -146 -43l-36 73q104 52 196 52zM255 66q52 0 96.5 25.5t56.5 70.5
v69q-65 20 -141 20q-53 0 -90 -27t-37 -68t32.5 -65.5t82.5 -24.5z" />
    <glyph glyph-name="Abreve" unicode="&#x102;" horiz-adv-x="754" 
d="M528 818q-62 -62 -151 -62q-87 0 -151 62l52 53q44 -42 99 -42t99 42zM616 0l-60 140h-358l-60 -140h-112l295 687h112l295 -687h-112zM237 231h280l-140 326z" />
    <glyph glyph-name="abreve" unicode="&#x103;" horiz-adv-x="576" 
d="M446 648q-62 -62 -151 -62q-87 0 -151 62l52 53q44 -42 99 -42t99 42zM289 529q102 0 159 -59t57 -157v-313h-97v71q-28 -39 -75.5 -61t-96.5 -22q-84 0 -137.5 45t-53.5 120q0 76 60 124t147 48q74 0 156 -28v16q0 57 -31 95.5t-102 38.5q-62 0 -146 -43l-36 73
q104 52 196 52zM255 66q52 0 96.5 25.5t56.5 70.5v69q-65 20 -141 20q-53 0 -90 -27t-37 -68t32.5 -65.5t82.5 -24.5z" />
    <glyph glyph-name="Aogonek" unicode="&#x104;" horiz-adv-x="754" 
d="M771 -87l30 -56q-35 -30 -85 -30q-49 0 -79.5 29t-30.5 79q0 37 23 65h-13l-60 140h-358l-60 -140h-112l295 687h112l295 -687q-24 0 -39 -15t-15 -38q0 -24 14.5 -37.5t39.5 -13.5q28 0 43 17zM237 231h280l-140 326z" />
    <glyph glyph-name="aogonek" unicode="&#x105;" horiz-adv-x="576" 
d="M548 -87l30 -56q-35 -30 -85 -30q-49 0 -79.5 29t-30.5 79q0 39 25 67v69q-28 -39 -75.5 -61t-96.5 -22q-84 0 -137.5 45t-53.5 120q0 76 60 124t147 48q74 0 156 -28v16q0 57 -31 95.5t-102 38.5q-62 0 -146 -43l-36 73q104 52 196 52q102 0 159 -59t57 -157v-313
q-24 0 -39 -15t-15 -38q0 -24 14.5 -37.5t39.5 -13.5q28 0 43 17zM255 66q52 0 96.5 25.5t56.5 70.5v69q-65 20 -141 20q-53 0 -90 -27t-37 -68t32.5 -65.5t82.5 -24.5z" />
    <glyph glyph-name="Cacute" unicode="&#x106;" horiz-adv-x="685" 
d="M296 746l119 148l97 -20l-144 -128h-72zM405 -12q-145 0 -251 105.5t-106 250.5t106 250t251 105q148 0 253 -108l-71 -68q-76 83 -182 83q-103 0 -178 -78t-75 -184q0 -107 75 -185t178 -78q106 0 182 83l71 -68q-106 -108 -253 -108z" />
    <glyph glyph-name="cacute" unicode="&#x107;" horiz-adv-x="544" 
d="M208 576l119 148l97 -20l-144 -128h-72zM316 -12q-110 0 -191 80.5t-81 190.5t81 190t192 80q110 0 190 -80l-67 -62q-50 56 -124 56q-70 0 -121 -54.5t-51 -129.5q0 -76 51 -130.5t122 -54.5q74 0 126 58l67 -61q-81 -83 -194 -83z" />
    <glyph glyph-name="Ccaron" unicode="&#x10c;" horiz-adv-x="685" 
d="M341 746l-102 140h68l77 -82l78 82h69l-103 -140h-87zM405 -12q-145 0 -251 105.5t-106 250.5t106 250t251 105q148 0 253 -108l-71 -68q-76 83 -182 83q-103 0 -178 -78t-75 -184q0 -107 75 -185t178 -78q106 0 182 83l71 -68q-106 -108 -253 -108z" />
    <glyph glyph-name="ccaron" unicode="&#x10d;" horiz-adv-x="544" 
d="M253 576l-102 140h68l77 -82l78 82h69l-103 -140h-87zM316 -12q-110 0 -191 80.5t-81 190.5t81 190t192 80q110 0 190 -80l-67 -62q-50 56 -124 56q-70 0 -121 -54.5t-51 -129.5q0 -76 51 -130.5t122 -54.5q74 0 126 58l67 -61q-81 -83 -194 -83z" />
    <glyph glyph-name="Dcaron" unicode="&#x10e;" horiz-adv-x="762" 
d="M281 746l-102 140h68l77 -82l78 82h69l-103 -140h-87zM87 0v687h237q167 0 273.5 -96t106.5 -247t-106.5 -247.5t-273.5 -96.5h-237zM188 92h142q119 0 194.5 70.5t75.5 181.5q0 110 -75.5 180.5t-194.5 70.5h-142v-503z" />
    <glyph glyph-name="dcaron" unicode="&#x10f;" horiz-adv-x="645" 
d="M470 428v271h98v-699h-98v90q-64 -102 -184 -102q-103 0 -170.5 76t-67.5 195q0 118 67.5 194t170.5 76q120 0 184 -101zM694 699q27 0 43 -21.5t16 -55.5q0 -28 -16 -57.5t-55 -75.5l-35 25q36 38 45 78q-21 0 -36.5 15.5t-15.5 37.5t16 38t38 16zM310 74q70 0 115 52
t45 133t-45 132.5t-115 51.5q-71 0 -116.5 -51.5t-45.5 -132.5t45.5 -133t116.5 -52z" />
    <glyph glyph-name="Dcroat" unicode="&#x110;" horiz-adv-x="787" 
d="M349 687q167 0 273.5 -96t106.5 -247t-106.5 -247.5t-273.5 -96.5h-237v302h-70v94h70v291h237zM355 92q119 0 194.5 70.5t75.5 181.5q0 110 -75.5 180.5t-194.5 70.5h-142v-199h188l-1 -94h-187v-210h142z" />
    <glyph glyph-name="dcroat" unicode="&#x111;" horiz-adv-x="667" 
d="M632 639v-58h-64v-581h-98v90q-64 -102 -184 -102q-103 0 -170.5 76t-67.5 195q0 118 67.5 194t170.5 76q120 0 184 -101v153h-164v58h164v60h98v-60h64zM310 74q70 0 115 52t45 133t-45 132.5t-115 51.5q-71 0 -116.5 -51.5t-45.5 -132.5t45.5 -133t116.5 -52z" />
    <glyph glyph-name="Emacron" unicode="&#x112;" 
d="M489 825v-65h-322v65h322zM580 593h-403v-196h364v-94h-364v-209h403v-94h-505v687h505v-94z" />
    <glyph glyph-name="emacron" unicode="&#x113;" horiz-adv-x="594" 
d="M463 655v-65h-322v65h322zM309 76q40 0 82.5 16t65.5 40l62 -64q-34 -36 -93.5 -58t-115.5 -22q-110 0 -188 77.5t-78 194.5q0 115 75 192t183 77q117 0 183 -82.5t66 -222.5h-407q10 -66 54.5 -107t110.5 -41zM306 441q-60 0 -104.5 -37.5t-56.5 -100.5h310
q-9 63 -47 100.5t-102 37.5z" />
    <glyph glyph-name="Edotaccent" unicode="&#x116;" 
d="M328 763q-23 0 -38.5 15.5t-15.5 38.5q0 22 15.5 38t38.5 16q22 0 38 -16.5t16 -37.5q0 -23 -16 -38.5t-38 -15.5zM580 593h-403v-196h364v-94h-364v-209h403v-94h-505v687h505v-94z" />
    <glyph glyph-name="edotaccent" unicode="&#x117;" horiz-adv-x="594" 
d="M302 593q-23 0 -38.5 15.5t-15.5 38.5q0 22 15.5 38t38.5 16q22 0 38 -16.5t16 -37.5q0 -23 -16 -38.5t-38 -15.5zM309 76q40 0 82.5 16t65.5 40l62 -64q-34 -36 -93.5 -58t-115.5 -22q-110 0 -188 77.5t-78 194.5q0 115 75 192t183 77q117 0 183 -82.5t66 -222.5h-407
q10 -66 54.5 -107t110.5 -41zM306 441q-60 0 -104.5 -37.5t-56.5 -100.5h310q-9 63 -47 100.5t-102 37.5z" />
    <glyph glyph-name="Eogonek" unicode="&#x118;" 
d="M580 593h-403v-196h364v-94h-364v-209h403v-94h-73q-24 0 -39 -15t-15 -38q0 -24 14.5 -37.5t39.5 -13.5q28 0 43 17l30 -56q-35 -30 -85 -30q-49 0 -79.5 29t-30.5 79q0 37 23 65h-333v687h505v-94z" />
    <glyph glyph-name="eogonek" unicode="&#x119;" horiz-adv-x="594" 
d="M519 68q-39 -42 -114 -65q-14 -14 -14 -37q0 -24 14.5 -37.5t39.5 -13.5q28 0 43 17l30 -56q-35 -30 -85 -30q-49 0 -79.5 29t-30.5 79q0 18 6 35q-6 -1 -19 -1q-110 0 -188 77.5t-78 194.5q0 115 75 192t183 77q117 0 183 -82.5t66 -222.5h-407q10 -66 54.5 -107
t110.5 -41q40 0 82.5 16t65.5 40zM306 441q-60 0 -104.5 -37.5t-56.5 -100.5h310q-9 63 -47 100.5t-102 37.5z" />
    <glyph glyph-name="Ecaron" unicode="&#x11a;" 
d="M372 746h-87l-102 140h68l77 -82l78 82h69zM580 593h-403v-196h364v-94h-364v-209h403v-94h-505v687h505v-94z" />
    <glyph glyph-name="ecaron" unicode="&#x11b;" horiz-adv-x="594" 
d="M346 576h-87l-102 140h68l77 -82l78 82h69zM309 76q40 0 82.5 16t65.5 40l62 -64q-34 -36 -93.5 -58t-115.5 -22q-110 0 -188 77.5t-78 194.5q0 115 75 192t183 77q117 0 183 -82.5t66 -222.5h-407q10 -66 54.5 -107t110.5 -41zM306 441q-60 0 -104.5 -37.5t-56.5 -100.5
h310q-9 63 -47 100.5t-102 37.5z" />
    <glyph glyph-name="Gbreve" unicode="&#x11e;" horiz-adv-x="744" 
d="M557 818q-62 -62 -151 -62q-87 0 -151 62l52 53q44 -42 99 -42t99 42zM392 282v88h284v-274q-48 -49 -122.5 -78.5t-147.5 -29.5q-145 0 -251.5 105.5t-106.5 250.5q0 144 106.5 249.5t251.5 105.5q74 0 148 -29t122 -79l-71 -68q-35 38 -90 60.5t-109 22.5
q-103 0 -178.5 -77.5t-75.5 -184.5t75 -185t179 -78q96 0 170 57v144h-184z" />
    <glyph glyph-name="gbreve" unicode="&#x11f;" horiz-adv-x="640" 
d="M480 648q-62 -62 -151 -62q-87 0 -151 62l52 53q44 -42 99 -42t99 42zM465 517h99v-462q0 -100 -73.5 -163.5t-188.5 -63.5q-131 0 -216 69l39 74q60 -57 162 -57q83 0 130.5 38t47.5 105v75q-65 -94 -183 -94q-102 0 -168.5 69t-66.5 177t66.5 176.5t168.5 68.5
q58 0 105.5 -25.5t77.5 -69.5v83zM307 124q69 0 113.5 45t44.5 115t-44.5 114.5t-113.5 44.5t-113 -44.5t-44 -114.5t44 -115t113 -45z" />
    <glyph glyph-name="Gcommaaccent" unicode="&#x122;" horiz-adv-x="744" 
d="M392 282v88h284v-274q-48 -49 -122.5 -78.5t-147.5 -29.5q-145 0 -251.5 105.5t-106.5 250.5q0 144 106.5 249.5t251.5 105.5q74 0 148 -29t122 -79l-71 -68q-35 38 -90 60.5t-109 22.5q-103 0 -178.5 -77.5t-75.5 -184.5t75 -185t179 -78q96 0 170 57v144h-184zM403 -70
q27 0 43 -21.5t16 -55.5q0 -28 -16 -57.5t-55 -75.5l-35 25q36 37 45 78q-21 0 -36.5 15.5t-15.5 37.5t16 38t38 16z" />
    <glyph glyph-name="gcommaaccent" unicode="&#x123;" horiz-adv-x="640" 
d="M314 593q-27 0 -43 21.5t-16 55.5q0 28 16 57.5t55 75.5l35 -25q-36 -38 -45 -78q21 0 36.5 -15.5t15.5 -37.5t-16 -38t-38 -16zM465 517h99v-462q0 -100 -73.5 -163.5t-188.5 -63.5q-131 0 -216 69l39 74q60 -57 162 -57q83 0 130.5 38t47.5 105v75q-65 -94 -183 -94
q-102 0 -168.5 69t-66.5 177t66.5 176.5t168.5 68.5q58 0 105.5 -25.5t77.5 -69.5v83zM307 124q69 0 113.5 45t44.5 115t-44.5 114.5t-113.5 44.5t-113 -44.5t-44 -114.5t44 -115t113 -45z" />
    <glyph glyph-name="Imacron" unicode="&#x12a;" horiz-adv-x="253" 
d="M-34 760v65h322v-65h-322zM76 0v687h101v-687h-101z" />
    <glyph glyph-name="imacron" unicode="&#x12b;" horiz-adv-x="241" 
d="M-40 590v65h322v-65h-322zM71 0v517h99v-517h-99z" />
    <glyph glyph-name="Iogonek" unicode="&#x12e;" horiz-adv-x="253" 
d="M214 -87l30 -56q-35 -30 -85 -30q-49 0 -79.5 29t-30.5 79q0 40 27 69v683h101v-687h-6q-24 0 -39 -15t-15 -38q0 -24 14.5 -37.5t39.5 -13.5q28 0 43 17z" />
    <glyph glyph-name="iogonek" unicode="&#x12f;" horiz-adv-x="241" 
d="M121 593q-23 0 -38.5 15.5t-15.5 38.5q0 22 15.5 38t38.5 16q22 0 38 -16.5t16 -37.5q0 -23 -15.5 -38.5t-38.5 -15.5zM164 -87l30 -56q-35 -30 -85 -30q-49 0 -79.5 29t-30.5 79q0 29 15 53t38 35l19 -6v500h99v-517h-49q-24 0 -39 -15t-15 -38q0 -24 14.5 -37.5
t39.5 -13.5q28 0 43 17z" />
    <glyph glyph-name="Idotaccent" unicode="&#x130;" horiz-adv-x="253" 
d="M127 763q-23 0 -38.5 15.5t-15.5 38.5q0 22 15.5 38t38.5 16q22 0 38 -16.5t16 -37.5q0 -23 -15.5 -38.5t-38.5 -15.5zM76 0v687h101v-687h-101z" />
    <glyph glyph-name="dotlessi" unicode="&#x131;" horiz-adv-x="241" 
d="M71 0v517h99v-517h-99z" />
    <glyph glyph-name="Kcommaaccent" unicode="&#x136;" horiz-adv-x="673" 
d="M86 0v687h101v-358l324 358h129l-282 -309l301 -378h-127l-245 308l-100 -107v-201h-101zM336 -280l-35 25q36 37 45 78q-21 0 -36.5 15.5t-15.5 37.5t16 38t38 16q27 0 43 -21.5t16 -55.5q0 -28 -16 -57.5t-55 -75.5z" />
    <glyph glyph-name="kcommaaccent" unicode="&#x137;" horiz-adv-x="552" 
d="M542 517l-223 -234l213 -283h-118l-162 217l-83 -84v-133h-98v699h98v-446l253 264h120zM283 -70q27 0 43 -21.5t16 -55.5q0 -28 -16 -57.5t-55 -75.5l-35 25q36 37 45 78q-21 0 -36.5 15.5t-15.5 37.5t16 38t38 16z" />
    <glyph glyph-name="Lacute" unicode="&#x139;" horiz-adv-x="563" 
d="M296 874l-144 -128h-72l119 148zM168 94h364v-94h-466v687h102v-593z" />
    <glyph glyph-name="lacute" unicode="&#x13a;" horiz-adv-x="242" 
d="M85 758l119 148l97 -20l-144 -128h-72zM72 0v699h98v-699h-98z" />
    <glyph glyph-name="Lcaron" unicode="&#x13d;" horiz-adv-x="563" 
d="M291 592q-21 0 -36.5 15.5t-15.5 37.5t16 38t38 16q27 0 43 -21.5t16 -55.5q0 -28 -16 -57.5t-55 -75.5l-35 25q36 38 45 78zM168 94h364v-94h-466v687h102v-593z" />
    <glyph glyph-name="lcaron" unicode="&#x13e;" horiz-adv-x="242" 
d="M72 0v699h98v-699h-98zM284 489l-35 25q36 38 45 78q-21 0 -36.5 15.5t-15.5 37.5t16 38t38 16q27 0 43 -21.5t16 -55.5q0 -28 -16 -57.5t-55 -75.5z" />
    <glyph glyph-name="Lslash" unicode="&#x141;" horiz-adv-x="610" 
d="M215 94h364v-94h-466v264l-80 -41v93l80 41v330h102v-279l131 67v-93l-131 -67v-221z" />
    <glyph glyph-name="lslash" unicode="&#x142;" horiz-adv-x="322" 
d="M289 447v-94l-81 -41v-312h-98v262l-77 -39v93l77 39v344h98v-293z" />
    <glyph glyph-name="Nacute" unicode="&#x143;" horiz-adv-x="771" 
d="M298 746l119 148l97 -20l-144 -128h-72zM87 0v687h101l395 -521v521h101v-687h-101l-395 521v-521h-101z" />
    <glyph glyph-name="nacute" unicode="&#x144;" horiz-adv-x="599" 
d="M443 704l-144 -128h-72l119 148zM335 529q85 0 139.5 -56t54.5 -144v-329h-97v312q0 58 -33.5 94.5t-85.5 36.5q-54 0 -95 -31t-47 -77v-335h-99v517h99v-75q24 39 68 63t96 24z" />
    <glyph glyph-name="Ncommaaccent" unicode="&#x145;" horiz-adv-x="771" 
d="M87 0v687h101l395 -521v521h101v-687h-101l-395 521v-521h-101zM374 -280l-35 25q36 37 45 78q-21 0 -36.5 15.5t-15.5 37.5t16 38t38 16q27 0 43 -21.5t16 -55.5q0 -28 -16 -57.5t-55 -75.5z" />
    <glyph glyph-name="ncommaaccent" unicode="&#x146;" horiz-adv-x="599" 
d="M335 529q85 0 139.5 -56t54.5 -144v-329h-97v312q0 58 -33.5 94.5t-85.5 36.5q-54 0 -95 -31t-47 -77v-335h-99v517h99v-75q24 39 68 63t96 24zM315 -70q27 0 43 -21.5t16 -55.5q0 -28 -16 -57.5t-55 -75.5l-35 25q36 37 45 78q-21 0 -36.5 15.5t-15.5 37.5t16 38t38 16z
" />
    <glyph glyph-name="Ncaron" unicode="&#x147;" horiz-adv-x="771" 
d="M343 746l-102 140h68l77 -82l78 82h69l-103 -140h-87zM87 0v687h101l395 -521v521h101v-687h-101l-395 521v-521h-101z" />
    <glyph glyph-name="ncaron" unicode="&#x148;" horiz-adv-x="599" 
d="M359 576h-87l-102 140h68l77 -82l78 82h69zM335 529q85 0 139.5 -56t54.5 -144v-329h-97v312q0 58 -33.5 94.5t-85.5 36.5q-54 0 -95 -31t-47 -77v-335h-99v517h99v-75q24 39 68 63t96 24z" />
    <glyph glyph-name="Omacron" unicode="&#x14c;" horiz-adv-x="809" 
d="M244 760v65h322v-65h-322zM405 -12q-145 0 -251 105.5t-106 250.5t106 250t251 105t250 -105t105 -250t-105 -250.5t-250 -105.5zM405 81q103 0 177.5 78t74.5 185t-74.5 184.5t-177.5 77.5t-178 -78t-75 -184q0 -107 75 -185t178 -78z" />
    <glyph glyph-name="omacron" unicode="&#x14d;" 
d="M156 590v65h322v-65h-322zM317 -12q-111 0 -192 80.5t-81 190.5t81 190t192 80q110 0 190.5 -80t80.5 -190t-80.5 -190.5t-190.5 -80.5zM317 74q70 0 121 54.5t51 130.5q0 75 -51 129.5t-121 54.5q-71 0 -122.5 -54.5t-51.5 -129.5q0 -76 51.5 -130.5t122.5 -54.5z" />
    <glyph glyph-name="Ohungarumlaut" unicode="&#x150;" horiz-adv-x="809" 
d="M252 745l119 149l97 -20l-144 -129h-72zM464 745l119 147l96 -20l-144 -127h-71zM405 -12q-145 0 -251 105.5t-106 250.5t106 250t251 105t250 -105t105 -250t-105 -250.5t-250 -105.5zM405 81q103 0 177.5 78t74.5 185t-74.5 184.5t-177.5 77.5t-178 -78t-75 -184
q0 -107 75 -185t178 -78z" />
    <glyph glyph-name="ohungarumlaut" unicode="&#x151;" 
d="M169 575l119 149l97 -20l-144 -129h-72zM381 575l119 147l96 -20l-144 -127h-71zM317 -12q-111 0 -192 80.5t-81 190.5t81 190t192 80q110 0 190.5 -80t80.5 -190t-80.5 -190.5t-190.5 -80.5zM317 74q70 0 121 54.5t51 130.5q0 75 -51 129.5t-121 54.5
q-71 0 -122.5 -54.5t-51.5 -129.5q0 -76 51.5 -130.5t122.5 -54.5z" />
    <glyph glyph-name="OE" unicode="&#x152;" horiz-adv-x="1035" 
d="M983 593h-403v-196h364v-94h-364v-209h403v-94h-578q-147 0 -252 96.5t-105 239.5q0 144 106 247.5t251 103.5h578v-94zM405 93h73v501h-73q-103 0 -178 -76t-75 -182q0 -105 74 -174t179 -69z" />
    <glyph glyph-name="oe" unicode="&#x153;" horiz-adv-x="1041" 
d="M756 76q40 0 82.5 16t65.5 40l62 -64q-34 -36 -93.5 -58t-115.5 -22q-67 0 -125 31t-95 85q-37 -53 -95.5 -84.5t-124.5 -31.5q-111 0 -192 80.5t-81 190.5t81 190t192 80q66 0 124 -30.5t95 -82.5q36 53 92 83t121 30q117 0 183 -82.5t66 -222.5h-407q10 -66 54.5 -107
t110.5 -41zM317 74q70 0 121 54.5t51 130.5q0 75 -51 129.5t-121 54.5q-71 0 -122.5 -54.5t-51.5 -129.5q0 -76 51.5 -130.5t122.5 -54.5zM753 441q-60 0 -104.5 -37.5t-56.5 -100.5h310q-9 63 -47 100.5t-102 37.5z" />
    <glyph glyph-name="Racute" unicode="&#x154;" horiz-adv-x="659" 
d="M464 874l-144 -128h-72l119 148zM619 463q0 -78 -48.5 -135.5t-127.5 -78.5l175 -249h-116l-168 239h-158v-239h-101v687h289q109 0 182 -63t73 -161zM176 593v-260h174q75 0 120.5 35t45.5 95t-45.5 95t-120.5 35h-174z" />
    <glyph glyph-name="racute" unicode="&#x155;" horiz-adv-x="393" 
d="M354 704l-144 -128h-72l119 148zM176 418q25 52 75.5 81.5t116.5 29.5v-86q-80 0 -132.5 -40.5t-59.5 -108.5v-294h-99v517h99v-99z" />
    <glyph glyph-name="Rcommaaccent" unicode="&#x156;" horiz-adv-x="659" 
d="M619 463q0 -78 -48.5 -135.5t-127.5 -78.5l175 -249h-116l-168 239h-158v-239h-101v687h289q109 0 182 -63t73 -161zM176 593v-260h174q75 0 120.5 35t45.5 95t-45.5 95t-120.5 35h-174zM325 -70q27 0 43 -21.5t16 -55.5q0 -28 -16 -57.5t-55 -75.5l-35 25q36 37 45 78
q-21 0 -36.5 15.5t-15.5 37.5t16 38t38 16z" />
    <glyph glyph-name="rcommaaccent" unicode="&#x157;" horiz-adv-x="393" 
d="M176 418q25 52 75.5 81.5t116.5 29.5v-86q-80 0 -132.5 -40.5t-59.5 -108.5v-294h-99v517h99v-99zM168 -70q27 0 43 -21.5t16 -55.5q0 -28 -16 -57.5t-55 -75.5l-35 25q36 37 45 78q-21 0 -36.5 15.5t-15.5 37.5t16 38t38 16z" />
    <glyph glyph-name="Rcaron" unicode="&#x158;" horiz-adv-x="659" 
d="M380 746h-87l-102 140h68l77 -82l78 82h69zM619 463q0 -78 -48.5 -135.5t-127.5 -78.5l175 -249h-116l-168 239h-158v-239h-101v687h289q109 0 182 -63t73 -161zM176 593v-260h174q75 0 120.5 35t45.5 95t-45.5 95t-120.5 35h-174z" />
    <glyph glyph-name="rcaron" unicode="&#x159;" horiz-adv-x="393" 
d="M270 576h-87l-102 140h68l77 -82l78 82h69zM176 418q25 52 75.5 81.5t116.5 29.5v-86q-80 0 -132.5 -40.5t-59.5 -108.5v-294h-99v517h99v-99z" />
    <glyph glyph-name="Sacute" unicode="&#x15a;" horiz-adv-x="620" 
d="M214 746l119 148l97 -20l-144 -128h-72zM321 -11q-168 0 -283 110l61 75q101 -96 226 -96q68 0 106 30.5t38 74.5q0 46 -39.5 70.5t-132.5 45.5q-118 28 -175.5 70.5t-57.5 128.5q0 87 67.5 144.5t170.5 57.5q141 0 251 -97l-58 -76q-92 84 -197 84q-56 0 -93.5 -31
t-37.5 -73q0 -45 39 -68t133 -45q115 -27 173.5 -71t58.5 -130q0 -90 -66 -147t-184 -57z" />
    <glyph glyph-name="sacute" unicode="&#x15b;" horiz-adv-x="498" 
d="M163 576l119 148l97 -20l-144 -128h-72zM259 -12q-126 0 -221 77l47 71q87 -63 175 -63q44 0 71 18.5t27 48.5q0 14 -6.5 25.5t-15.5 18.5t-27 14.5t-30.5 11.5t-37.5 11q-95 26 -136.5 58.5t-41.5 92.5q-1 71 52 114t136 43q100 0 191 -60l-44 -73q-77 48 -147 48
q-40 0 -65.5 -16.5t-25.5 -44.5t24 -42.5t95 -36.5q42 -12 65 -21t53 -27t44 -44.5t14 -63.5q0 -72 -55 -116t-141 -44z" />
    <glyph glyph-name="Scedilla" unicode="&#x15e;" horiz-adv-x="620" 
d="M571 193q0 -86 -60 -142t-169 -62l-15 -33h8q31 0 51 -19t20 -48q0 -37 -29 -60t-73 -23q-52 0 -90 29l21 47q29 -23 64 -23q20 0 33.5 10t13.5 25q0 32 -37 32q-17 0 -32 -10l-18 18l23 57q-141 10 -244 108l61 75q101 -96 226 -96q68 0 106 30.5t38 74.5
q0 46 -39.5 70.5t-132.5 45.5q-118 28 -175.5 70.5t-57.5 128.5q0 87 67.5 144.5t170.5 57.5q141 0 251 -97l-58 -76q-92 84 -197 84q-56 0 -93.5 -31t-37.5 -73q0 -45 39 -68t133 -45q115 -27 173.5 -71t58.5 -130z" />
    <glyph glyph-name="scedilla" unicode="&#x15f;" horiz-adv-x="498" 
d="M455 148q0 -68 -48.5 -111t-126.5 -48l-14 -33h8q31 0 51 -19t20 -48q0 -37 -29 -60t-73 -23q-52 0 -90 29l21 47q29 -23 64 -23q20 0 33.5 10t13.5 25q0 32 -37 32q-17 0 -32 -10l-18 18l23 56q-104 11 -183 75l47 71q87 -63 175 -63q44 0 71 18.5t27 48.5
q0 14 -6.5 25.5t-15.5 18.5t-27 14.5t-30.5 11.5t-37.5 11q-95 26 -136.5 58.5t-41.5 92.5q-1 71 52 114t136 43q100 0 191 -60l-44 -73q-77 48 -147 48q-40 0 -65.5 -16.5t-25.5 -44.5t24 -42.5t95 -36.5q42 -12 65 -21t53 -27t44 -44.5t14 -63.5z" />
    <glyph glyph-name="Scaron" unicode="&#x160;" horiz-adv-x="620" 
d="M259 746l-102 140h68l77 -82l78 82h69l-103 -140h-87zM321 -11q-168 0 -283 110l61 75q101 -96 226 -96q68 0 106 30.5t38 74.5q0 46 -39.5 70.5t-132.5 45.5q-118 28 -175.5 70.5t-57.5 128.5q0 87 67.5 144.5t170.5 57.5q141 0 251 -97l-58 -76q-92 84 -197 84
q-56 0 -93.5 -31t-37.5 -73q0 -45 39 -68t133 -45q115 -27 173.5 -71t58.5 -130q0 -90 -66 -147t-184 -57z" />
    <glyph glyph-name="scaron" unicode="&#x161;" horiz-adv-x="498" 
d="M208 576l-102 140h68l77 -82l78 82h69l-103 -140h-87zM259 -12q-126 0 -221 77l47 71q87 -63 175 -63q44 0 71 18.5t27 48.5q0 14 -6.5 25.5t-15.5 18.5t-27 14.5t-30.5 11.5t-37.5 11q-95 26 -136.5 58.5t-41.5 92.5q-1 71 52 114t136 43q100 0 191 -60l-44 -73
q-77 48 -147 48q-40 0 -65.5 -16.5t-25.5 -44.5t24 -42.5t95 -36.5q42 -12 65 -21t53 -27t44 -44.5t14 -63.5q0 -72 -55 -116t-141 -44z" />
    <glyph glyph-name="uni0162" unicode="&#x162;" horiz-adv-x="633" 
d="M367 0h-20l-19 -44h8q31 0 51 -19t20 -48q0 -37 -29 -60t-73 -23q-52 0 -90 29l21 47q29 -23 64 -23q20 0 33.5 10t13.5 25q0 32 -37 32q-17 0 -32 -10l-18 18l27 66h-21v593h-225v94h552v-94h-226v-593z" />
    <glyph glyph-name="uni0163" unicode="&#x163;" horiz-adv-x="379" 
d="M274 -44q31 0 51 -19t20 -48q0 -37 -29 -60t-73 -23q-52 0 -90 29l21 47q29 -23 64 -23q20 0 33.5 10t13.5 25q0 32 -37 32q-17 0 -32 -10l-18 18l23 56q-50 8 -80 46t-30 93v304h-78v84h78v142h97v-142h122v-84h-122v-297q0 -27 15.5 -44.5t37.5 -17.5q34 0 53 19
l36 -68q-28 -23 -68 -33l-16 -36h8z" />
    <glyph glyph-name="Tcaron" unicode="&#x164;" horiz-adv-x="633" 
d="M274 746l-102 140h68l77 -82l78 82h69l-103 -140h-87zM266 0v593h-225v94h552v-94h-226v-593h-101z" />
    <glyph glyph-name="tcaron" unicode="&#x165;" horiz-adv-x="379" 
d="M456 699q27 0 43 -21.5t16 -55.5q0 -28 -16 -57.5t-55 -75.5l-35 25q36 38 45 78q-21 0 -36.5 15.5t-15.5 37.5t16 38t38 16zM261 74q34 0 53 19l36 -68q-45 -37 -103 -37q-60 0 -98 39.5t-38 101.5v304h-78v84h78v142h97v-142h122v-84h-122v-297q0 -27 15.5 -44.5
t37.5 -17.5z" />
    <glyph glyph-name="Umacron" unicode="&#x16a;" horiz-adv-x="749" 
d="M214 760v65h322v-65h-322zM375 -12q-130 0 -212.5 84.5t-82.5 216.5v398h101v-396q0 -92 54.5 -151.5t139.5 -59.5t139 59.5t54 151.5v396h102v-398q0 -132 -83 -216.5t-212 -84.5z" />
    <glyph glyph-name="umacron" unicode="&#x16b;" horiz-adv-x="599" 
d="M459 655v-65h-322v65h322zM428 517h99v-517h-99v75q-24 -39 -68 -63t-96 -24q-85 0 -139.5 56t-54.5 144v329h97v-312q0 -58 33.5 -94.5t85.5 -36.5q54 0 95 31t47 77v335z" />
    <glyph glyph-name="Uring" unicode="&#x16e;" horiz-adv-x="749" 
d="M375 756q-44 0 -75.5 31.5t-31.5 75.5t31.5 75t75.5 31t75 -31t31 -75t-31 -75.5t-75 -31.5zM375 806q23 0 40 17t17 40t-17 40t-40 17t-40 -17t-17 -40t17 -40t40 -17zM375 -12q-130 0 -212.5 84.5t-82.5 216.5v398h101v-396q0 -92 54.5 -151.5t139.5 -59.5t139 59.5
t54 151.5v396h102v-398q0 -132 -83 -216.5t-212 -84.5z" />
    <glyph glyph-name="uring" unicode="&#x16f;" horiz-adv-x="599" 
d="M298 586q-44 0 -75.5 31.5t-31.5 75.5t31.5 75t75.5 31t75 -31t31 -75t-31 -75.5t-75 -31.5zM298 750q-23 0 -40 -17t-17 -40t17 -40t40 -17t40 17t17 40t-17 40t-40 17zM428 517h99v-517h-99v75q-24 -39 -68 -63t-96 -24q-85 0 -139.5 56t-54.5 144v329h97v-312
q0 -58 33.5 -94.5t85.5 -36.5q54 0 95 31t47 77v335z" />
    <glyph glyph-name="Uhungarumlaut" unicode="&#x170;" horiz-adv-x="749" 
d="M219 745l119 149l97 -20l-144 -129h-72zM431 745l119 147l96 -20l-144 -127h-71zM375 -12q-130 0 -212.5 84.5t-82.5 216.5v398h101v-396q0 -92 54.5 -151.5t139.5 -59.5t139 59.5t54 151.5v396h102v-398q0 -132 -83 -216.5t-212 -84.5z" />
    <glyph glyph-name="uhungarumlaut" unicode="&#x171;" horiz-adv-x="599" 
d="M361 704l-144 -129h-72l119 149zM428 575h-71l119 147l96 -20zM428 182v335h99v-517h-99v75q-24 -39 -68 -63t-96 -24q-85 0 -139.5 56t-54.5 144v329h97v-312q0 -58 33.5 -94.5t85.5 -36.5q54 0 95 31t47 77z" />
    <glyph glyph-name="Uogonek" unicode="&#x172;" horiz-adv-x="749" 
d="M568 687h102v-398q0 -132 -83 -216.5t-212 -84.5h-8q-18 -15 -18 -41q0 -24 14.5 -37.5t39.5 -13.5q28 0 43 17l30 -56q-35 -30 -85 -30q-49 0 -79.5 29t-30.5 79q0 34 20 61q-100 23 -160.5 102t-60.5 191v398h101v-396q0 -92 54.5 -151.5t139.5 -59.5t139 59.5
t54 151.5v396z" />
    <glyph glyph-name="uogonek" unicode="&#x173;" horiz-adv-x="599" 
d="M570 -87l30 -56q-35 -30 -85 -30q-49 0 -79.5 29t-30.5 79q0 37 23 65v75q-24 -39 -68 -63t-96 -24q-85 0 -139.5 56t-54.5 144v329h97v-312q0 -58 33.5 -94.5t85.5 -36.5q54 0 95 31t47 77v335h99v-517q-24 0 -39 -15t-15 -38q0 -24 14.5 -37.5t39.5 -13.5q28 0 43 17z
" />
    <glyph glyph-name="Wcircumflex" unicode="&#x174;" horiz-adv-x="1080" 
d="M396 746l102 140h87l103 -140h-69l-78 82l-77 -82h-68zM257 0l-226 687h112l169 -524l172 524h112l172 -524l169 524h112l-226 -687h-101l-181 547l-183 -547h-101z" />
    <glyph glyph-name="wcircumflex" unicode="&#x175;" horiz-adv-x="836" 
d="M274 576l102 140h87l103 -140h-69l-78 82l-77 -82h-68zM203 0l-174 517h101l119 -385l128 385h84l128 -385l118 385h101l-174 -517h-91l-124 384l-125 -384h-91z" />
    <glyph glyph-name="Ycircumflex" unicode="&#x176;" horiz-adv-x="679" 
d="M195 746l102 140h87l103 -140h-69l-78 82l-77 -82h-68zM288 0v269l-275 418h122l205 -322l208 322h117l-273 -418v-269h-104z" />
    <glyph glyph-name="ycircumflex" unicode="&#x177;" horiz-adv-x="596" 
d="M152 576l102 140h87l103 -140h-69l-78 82l-77 -82h-68zM163 -180q-56 0 -98 22l22 76q29 -16 63 -16q48 0 71 40l26 55l-222 520h106l166 -408l157 408h103l-228 -564q-52 -131 -166 -133z" />
    <glyph glyph-name="Ydieresis" unicode="&#x178;" horiz-adv-x="679" 
d="M241 763q-23 0 -38.5 15.5t-15.5 38.5q0 22 15.5 38t38.5 16q22 0 38 -16.5t16 -37.5q0 -23 -15.5 -38.5t-38.5 -15.5zM440 763q-23 0 -38.5 15.5t-15.5 38.5q0 22 15.5 38t38.5 16q22 0 38 -16.5t16 -37.5q0 -22 -16 -38t-38 -16zM288 0v269l-275 418h122l205 -322
l208 322h117l-273 -418v-269h-104z" />
    <glyph glyph-name="Zacute" unicode="&#x179;" horiz-adv-x="646" 
d="M238 746l119 148l97 -20l-144 -128h-72zM55 0l-1 79l397 514h-389v94h528v-79l-397 -514h401v-94h-539z" />
    <glyph glyph-name="zacute" unicode="&#x17a;" horiz-adv-x="520" 
d="M179 576l119 148l97 -20l-144 -128h-72zM50 0v74l290 354h-284v89h414v-74l-290 -354h292v-89h-422z" />
    <glyph glyph-name="Zdotaccent" unicode="&#x17b;" horiz-adv-x="646" 
d="M326 763q-23 0 -38.5 15.5t-15.5 38.5q0 22 15.5 38t38.5 16q22 0 38 -16.5t16 -37.5q0 -23 -16 -38.5t-38 -15.5zM55 0l-1 79l397 514h-389v94h528v-79l-397 -514h401v-94h-539z" />
    <glyph glyph-name="zdotaccent" unicode="&#x17c;" horiz-adv-x="520" 
d="M267 593q-23 0 -38.5 15.5t-15.5 38.5q0 22 15.5 38t38.5 16q22 0 38 -16.5t16 -37.5q0 -23 -15.5 -38.5t-38.5 -15.5zM50 0v74l290 354h-284v89h414v-74l-290 -354h292v-89h-422z" />
    <glyph glyph-name="Zcaron" unicode="&#x17d;" horiz-adv-x="646" 
d="M283 746l-102 140h68l77 -82l78 82h69l-103 -140h-87zM55 0l-1 79l397 514h-389v94h528v-79l-397 -514h401v-94h-539z" />
    <glyph glyph-name="zcaron" unicode="&#x17e;" horiz-adv-x="520" 
d="M224 576l-102 140h68l77 -82l78 82h69l-103 -140h-87zM50 0v74l290 354h-284v89h414v-74l-290 -354h292v-89h-422z" />
    <glyph glyph-name="uni0237" unicode="&#x237;" horiz-adv-x="241" 
d="M32 -178q-50 0 -88 18l13 77q25 -10 60 -10q24 0 39 17.5t15 44.5v548h99v-553q0 -62 -38.5 -102t-99.5 -40z" />
    <glyph glyph-name="circumflex" unicode="&#x2c6;" horiz-adv-x="418" 
d="M63 576l102 140h87l103 -140h-69l-78 82l-77 -82h-68z" />
    <glyph glyph-name="caron" unicode="&#x2c7;" horiz-adv-x="418" 
d="M165 576l-102 140h68l77 -82l78 82h69l-103 -140h-87z" />
    <glyph glyph-name="breve" unicode="&#x2d8;" horiz-adv-x="428" 
d="M214 586q-87 0 -151 62l52 53q44 -42 99 -42t99 42l52 -53q-62 -62 -151 -62z" />
    <glyph glyph-name="dotaccent" unicode="&#x2d9;" horiz-adv-x="234" 
d="M117 593q-23 0 -38.5 15.5t-15.5 38.5q0 22 15.5 38t38.5 16q22 0 38 -16.5t16 -37.5q0 -23 -15.5 -38.5t-38.5 -15.5z" />
    <glyph glyph-name="ring" unicode="&#x2da;" horiz-adv-x="339" 
d="M170 586q-44 0 -75.5 31.5t-31.5 75.5t31.5 75t75.5 31t75 -31t31 -75t-31 -75.5t-75 -31.5zM170 636q23 0 40 17t17 40t-17 40t-40 17t-40 -17t-17 -40t17 -40t40 -17z" />
    <glyph glyph-name="ogonek" unicode="&#x2db;" horiz-adv-x="321" 
d="M173 -173q-49 0 -79.5 29t-30.5 79q0 29 15 53t38 35l69 -23q-24 0 -39 -15t-15 -38q0 -24 14.5 -37.5t39.5 -13.5q28 0 43 17l30 -56q-35 -30 -85 -30z" />
    <glyph glyph-name="tilde" unicode="&#x2dc;" horiz-adv-x="449" 
d="M290 574q-32 0 -73 30.5t-57 30.5q-37 0 -47 -63l-55 9q16 123 101 123q31 0 72 -30.5t58 -30.5q36 0 47 63l55 -8q-15 -124 -101 -124z" />
    <glyph glyph-name="hungarumlaut" unicode="&#x2dd;" horiz-adv-x="554" 
d="M63 575l119 149l97 -20l-144 -129h-72zM275 575l119 147l96 -20l-144 -127h-71z" />
    <glyph glyph-name="uni0326" unicode="&#x326;" horiz-adv-x="0" 
d="M-147 -280l-35 25q36 37 45 78q-21 0 -36.5 15.5t-15.5 37.5t16 38t38 16q27 0 43 -21.5t16 -55.5q0 -28 -16 -57.5t-55 -75.5z" />
    <glyph glyph-name="Wgrave" unicode="&#x1e80;" horiz-adv-x="1080" 
d="M506 746l-144 128l96 20l120 -148h-72zM257 0l-226 687h112l169 -524l172 524h112l172 -524l169 524h112l-226 -687h-101l-181 547l-183 -547h-101z" />
    <glyph glyph-name="wgrave" unicode="&#x1e81;" horiz-adv-x="836" 
d="M384 576l-144 128l96 20l120 -148h-72zM203 0l-174 517h101l119 -385l128 385h84l128 -385l118 385h101l-174 -517h-91l-124 384l-125 -384h-91z" />
    <glyph glyph-name="Wacute" unicode="&#x1e82;" horiz-adv-x="1080" 
d="M503 746l119 148l97 -20l-144 -128h-72zM257 0l-226 687h112l169 -524l172 524h112l172 -524l169 524h112l-226 -687h-101l-181 547l-183 -547h-101z" />
    <glyph glyph-name="wacute" unicode="&#x1e83;" horiz-adv-x="836" 
d="M382 576l119 148l97 -20l-144 -128h-72zM203 0l-174 517h101l119 -385l128 385h84l128 -385l118 385h101l-174 -517h-91l-124 384l-125 -384h-91z" />
    <glyph glyph-name="Wdieresis" unicode="&#x1e84;" horiz-adv-x="1080" 
d="M442 763q-23 0 -38.5 15.5t-15.5 38.5q0 22 15.5 38t38.5 16q22 0 38 -16.5t16 -37.5q0 -23 -16 -38.5t-38 -15.5zM641 763q-23 0 -38.5 15.5t-15.5 38.5q0 22 15.5 38t38.5 16q22 0 38 -16.5t16 -37.5q0 -22 -16 -38t-38 -16zM257 0l-226 687h112l169 -524l172 524h112
l172 -524l169 524h112l-226 -687h-101l-181 547l-183 -547h-101z" />
    <glyph glyph-name="wdieresis" unicode="&#x1e85;" horiz-adv-x="836" 
d="M320 593q-23 0 -38.5 15.5t-15.5 38.5q0 22 15.5 38t38.5 16q22 0 38 -16.5t16 -37.5q0 -23 -16 -38.5t-38 -15.5zM519 593q-23 0 -38.5 15.5t-15.5 38.5q0 22 15.5 38t38.5 16q22 0 38 -16.5t16 -37.5q0 -22 -16 -38t-38 -16zM203 0l-174 517h101l119 -385l128 385h84
l128 -385l118 385h101l-174 -517h-91l-124 384l-125 -384h-91z" />
    <glyph glyph-name="uni1EB8" unicode="&#x1eb8;" 
d="M580 593h-403v-196h364v-94h-364v-209h403v-94h-505v687h505v-94zM328 -77q22 0 38 -16.5t16 -37.5q0 -23 -16 -38.5t-38 -15.5q-23 0 -38.5 15.5t-15.5 38.5q0 22 15.5 38t38.5 16z" />
    <glyph glyph-name="uni1EB9" unicode="&#x1eb9;" horiz-adv-x="594" 
d="M309 76q40 0 82.5 16t65.5 40l62 -64q-34 -36 -93.5 -58t-115.5 -22q-110 0 -188 77.5t-78 194.5q0 115 75 192t183 77q117 0 183 -82.5t66 -222.5h-407q10 -66 54.5 -107t110.5 -41zM306 441q-60 0 -104.5 -37.5t-56.5 -100.5h310q-9 63 -47 100.5t-102 37.5zM301 -77
q22 0 38 -16.5t16 -37.5q0 -23 -15.5 -38.5t-38.5 -15.5t-38.5 15.5t-15.5 38.5q0 22 15.5 38t38.5 16z" />
    <glyph glyph-name="uni1EBC" unicode="&#x1ebc;" 
d="M263 805q-37 0 -47 -63l-55 9q16 123 101 123q32 0 73 -30.5t57 -30.5q36 0 47 63l55 -8q-16 -124 -101 -124q-32 0 -72.5 30.5t-57.5 30.5zM580 593h-403v-196h364v-94h-364v-209h403v-94h-505v687h505v-94z" />
    <glyph glyph-name="uni1EBD" unicode="&#x1ebd;" horiz-adv-x="594" 
d="M237 635q-37 0 -47 -63l-55 9q16 123 101 123q32 0 73 -30.5t57 -30.5q36 0 47 63l55 -8q-16 -124 -101 -124q-31 0 -72 30.5t-58 30.5zM309 76q40 0 82.5 16t65.5 40l62 -64q-34 -36 -93.5 -58t-115.5 -22q-110 0 -188 77.5t-78 194.5q0 115 75 192t183 77
q117 0 183 -82.5t66 -222.5h-407q10 -66 54.5 -107t110.5 -41zM306 441q-60 0 -104.5 -37.5t-56.5 -100.5h310q-9 63 -47 100.5t-102 37.5z" />
    <glyph glyph-name="Ygrave" unicode="&#x1ef2;" horiz-adv-x="679" 
d="M346 746l-144 128l96 20l120 -148h-72zM288 0v269l-275 418h122l205 -322l208 322h117l-273 -418v-269h-104z" />
    <glyph glyph-name="ygrave" unicode="&#x1ef3;" horiz-adv-x="596" 
d="M303 576l-144 128l96 20l120 -148h-72zM163 -180q-56 0 -98 22l22 76q29 -16 63 -16q48 0 71 40l26 55l-222 520h106l166 -408l157 408h103l-228 -564q-52 -131 -166 -133z" />
    <glyph glyph-name="uni2002" unicode="&#x2002;" horiz-adv-x="500" 
 />
    <glyph glyph-name="uni2003" unicode="&#x2003;" horiz-adv-x="1000" 
 />
    <glyph glyph-name="uni2004" unicode="&#x2004;" horiz-adv-x="333" 
 />
    <glyph glyph-name="uni2005" unicode="&#x2005;" horiz-adv-x="250" 
 />
    <glyph glyph-name="uni2006" unicode="&#x2006;" horiz-adv-x="166" 
 />
    <glyph glyph-name="endash" unicode="&#x2013;" horiz-adv-x="575" 
d="M52 229v88h471v-88h-471z" />
    <glyph glyph-name="emdash" unicode="&#x2014;" horiz-adv-x="880" 
d="M52 229v88h776v-88h-776z" />
    <glyph glyph-name="quoteleft" unicode="&#x2018;" horiz-adv-x="274" 
d="M152 679l42 -32q-42 -44 -55 -93q27 0 46 -19.5t19 -47.5q0 -27 -19.5 -46.5t-47.5 -19.5q-33 0 -52.5 26.5t-19.5 68.5q0 35 19.5 71.5t67.5 91.5z" />
    <glyph glyph-name="quoteright" unicode="&#x2019;" horiz-adv-x="274" 
d="M122 423l-42 32q42 44 55 93q-27 0 -46 19.5t-19 47.5q0 27 19.5 46.5t47.5 19.5q33 0 52.5 -26.5t19.5 -68.5q0 -35 -19.5 -71.5t-67.5 -91.5z" />
    <glyph glyph-name="quotedblleft" unicode="&#x201c;" horiz-adv-x="494" 
d="M152 679l42 -32q-42 -44 -55 -93q27 0 46 -19.5t19 -47.5q0 -27 -19.5 -46.5t-47.5 -19.5q-33 0 -52.5 26.5t-19.5 68.5q0 35 19.5 71.5t67.5 91.5zM372 679l42 -32q-42 -44 -55 -93q27 0 46 -19.5t19 -47.5q0 -27 -19.5 -46.5t-47.5 -19.5q-33 0 -52.5 26.5t-19.5 68.5
q0 35 19.5 71.5t67.5 91.5z" />
    <glyph glyph-name="quotedblright" unicode="&#x201d;" horiz-adv-x="494" 
d="M122 423l-42 32q42 44 55 93q-27 0 -46 19.5t-19 47.5q0 27 19.5 46.5t47.5 19.5q33 0 52.5 -26.5t19.5 -68.5q0 -35 -19.5 -71.5t-67.5 -91.5zM342 423l-42 32q42 44 55 93q-27 0 -46 19.5t-19 47.5q0 27 19.5 46.5t47.5 19.5q33 0 52.5 -26.5t19.5 -68.5
q0 -35 -19.5 -71.5t-67.5 -91.5z" />
    <glyph glyph-name="bullet" unicode="&#x2022;" horiz-adv-x="420" 
d="M211 172q-52 0 -89 37t-37 89q0 51 37 88t89 37t88.5 -37t36.5 -88q0 -52 -36.5 -89t-88.5 -37z" />
    <glyph glyph-name="ellipsis" unicode="&#x2026;" horiz-adv-x="706" 
d="M134 -12q-28 0 -47.5 20t-19.5 48q0 26 19.5 45.5t47.5 19.5q27 0 46 -19.5t19 -45.5q0 -28 -19 -48t-46 -20zM354 -12q-28 0 -47.5 20t-19.5 48q0 26 19.5 45.5t47.5 19.5q27 0 46 -19.5t19 -45.5q0 -28 -19 -48t-46 -20zM574 -12q-28 0 -47.5 20t-19.5 48
q0 26 19.5 45.5t47.5 19.5q27 0 46 -19.5t19 -45.5q0 -28 -19 -48t-46 -20z" />
    <glyph glyph-name="uni202F" unicode="&#x202f;" horiz-adv-x="286" 
 />
    <glyph glyph-name="perthousand" unicode="&#x2030;" horiz-adv-x="1186" 
d="M207 347q-72 0 -117.5 49.5t-45.5 121.5q0 75 46 125t118 50t117.5 -50t45.5 -123q0 -74 -46.5 -123.5t-117.5 -49.5zM130 0l472 687h80l-473 -687h-79zM208 411q38 0 63 30.5t25 77.5t-25.5 78t-63.5 31q-39 0 -63.5 -30.5t-24.5 -78.5q0 -46 25.5 -77t63.5 -31z
M601 -10q-71 0 -117 49.5t-46 123.5q0 73 46 123t118 50t117.5 -50t45.5 -122q0 -75 -46 -124.5t-118 -49.5zM978 -10q-71 0 -117.5 49.5t-46.5 123.5q0 73 46 123t118 50t117.5 -50t45.5 -122q0 -75 -46 -124.5t-117 -49.5zM602 55q39 0 63.5 30.5t24.5 77.5t-25.5 78
t-63.5 31q-39 0 -63.5 -31t-24.5 -77q0 -47 25 -78t64 -31zM978 55q40 0 64.5 30.5t24.5 77.5t-25.5 78t-63.5 31q-39 0 -64 -31t-25 -77q0 -47 25 -78t64 -31z" />
    <glyph glyph-name="guilsinglleft" unicode="&#x2039;" horiz-adv-x="323" 
d="M199 51l-163 201l163 199l82 -19l-146 -179l146 -182z" />
    <glyph glyph-name="guilsinglright" unicode="&#x203a;" horiz-adv-x="323" 
d="M124 51l-82 20l145 182l-145 179l82 19l162 -199z" />
    <glyph glyph-name="Euro" unicode="&#x20ac;" horiz-adv-x="685" 
d="M405 81q106 0 182 83l71 -68q-106 -108 -253 -108q-116 0 -210.5 70.5t-129.5 179.5h-86v69h71q-2 24 -2 37q0 30 4 53h-73v69h92q39 103 131 168t203 65q148 0 253 -108l-71 -68q-76 83 -182 83q-70 0 -130 -38.5t-93 -101.5h287v-69h-312q-5 -28 -5 -53q0 -19 3 -37
h314v-69h-295q30 -70 93 -113.5t138 -43.5z" />
    <glyph glyph-name="minus" unicode="&#x2212;" horiz-adv-x="596" 
d="M65 289v89h467v-89h-467z" />
    <glyph glyph-name="a.alt" horiz-adv-x="645" 
d="M470 517h99v-517h-99v90q-64 -102 -184 -102q-103 0 -170.5 76t-67.5 195q0 118 67.5 194t170.5 76q120 0 184 -101v89zM310 74q70 0 115 52t45 133t-45 132.5t-115 51.5q-71 0 -116.5 -51.5t-45.5 -132.5t45.5 -133t116.5 -52z" />
    <glyph glyph-name="aacute.alt" horiz-adv-x="645" 
d="M457 704l-144 -128h-72l119 148zM470 517h99v-517h-99v90q-64 -102 -184 -102q-103 0 -170.5 76t-67.5 195q0 118 67.5 194t170.5 76q120 0 184 -101v89zM310 74q70 0 115 52t45 133t-45 132.5t-115 51.5q-71 0 -116.5 -51.5t-45.5 -132.5t45.5 -133t116.5 -52z" />
    <glyph glyph-name="abreve.alt" horiz-adv-x="645" 
d="M480 648q-62 -62 -151 -62q-87 0 -151 62l52 53q44 -42 99 -42t99 42zM470 517h99v-517h-99v90q-64 -102 -184 -102q-103 0 -170.5 76t-67.5 195q0 118 67.5 194t170.5 76q120 0 184 -101v89zM310 74q70 0 115 52t45 133t-45 132.5t-115 51.5q-71 0 -116.5 -51.5
t-45.5 -132.5t45.5 -133t116.5 -52z" />
    <glyph glyph-name="acircumflex.alt" horiz-adv-x="645" 
d="M329 658l-77 -82h-68l102 140h87l103 -140h-69zM470 517h99v-517h-99v90q-64 -102 -184 -102q-103 0 -170.5 76t-67.5 195q0 118 67.5 194t170.5 76q120 0 184 -101v89zM310 74q70 0 115 52t45 133t-45 132.5t-115 51.5q-71 0 -116.5 -51.5t-45.5 -132.5t45.5 -133
t116.5 -52z" />
    <glyph glyph-name="adieresis.alt" horiz-adv-x="645" 
d="M230 593q-23 0 -38.5 15.5t-15.5 38.5q0 22 15.5 38t38.5 16q22 0 38 -16.5t16 -37.5q0 -23 -16 -38.5t-38 -15.5zM429 593q-23 0 -38.5 15.5t-15.5 38.5q0 22 15.5 38t38.5 16q22 0 38 -16.5t16 -37.5q0 -22 -16 -38t-38 -16zM470 517h99v-517h-99v90
q-64 -102 -184 -102q-103 0 -170.5 76t-67.5 195q0 118 67.5 194t170.5 76q120 0 184 -101v89zM310 74q70 0 115 52t45 133t-45 132.5t-115 51.5q-71 0 -116.5 -51.5t-45.5 -132.5t45.5 -133t116.5 -52z" />
    <glyph glyph-name="agrave.alt" horiz-adv-x="645" 
d="M407 576h-72l-144 128l96 20zM470 517h99v-517h-99v90q-64 -102 -184 -102q-103 0 -170.5 76t-67.5 195q0 118 67.5 194t170.5 76q120 0 184 -101v89zM310 74q70 0 115 52t45 133t-45 132.5t-115 51.5q-71 0 -116.5 -51.5t-45.5 -132.5t45.5 -133t116.5 -52z" />
    <glyph glyph-name="amacron.alt" horiz-adv-x="645" 
d="M490 655v-65h-322v65h322zM470 517h99v-517h-99v90q-64 -102 -184 -102q-103 0 -170.5 76t-67.5 195q0 118 67.5 194t170.5 76q120 0 184 -101v89zM310 74q70 0 115 52t45 133t-45 132.5t-115 51.5q-71 0 -116.5 -51.5t-45.5 -132.5t45.5 -133t116.5 -52z" />
    <glyph glyph-name="aogonek.alt" horiz-adv-x="645" 
d="M612 -87l30 -56q-35 -30 -85 -30q-49 0 -79.5 29t-30.5 79q0 37 23 65v90q-64 -102 -184 -102q-103 0 -170.5 76t-67.5 195q0 118 67.5 194t170.5 76q120 0 184 -101v89h99v-517q-24 0 -39 -15t-15 -38q0 -24 14.5 -37.5t39.5 -13.5q28 0 43 17zM310 74q70 0 115 52
t45 133t-45 132.5t-115 51.5q-71 0 -116.5 -51.5t-45.5 -132.5t45.5 -133t116.5 -52z" />
    <glyph glyph-name="aring.alt" horiz-adv-x="645" 
d="M329 586q-44 0 -75.5 31.5t-31.5 75.5t31.5 75t75.5 31t75 -31t31 -75t-31 -75.5t-75 -31.5zM329 750q-23 0 -40 -17t-17 -40t17 -40t40 -17t40 17t17 40t-17 40t-40 17zM470 517h99v-517h-99v90q-64 -102 -184 -102q-103 0 -170.5 76t-67.5 195q0 118 67.5 194t170.5 76
q120 0 184 -101v89zM310 74q70 0 115 52t45 133t-45 132.5t-115 51.5q-71 0 -116.5 -51.5t-45.5 -132.5t45.5 -133t116.5 -52z" />
    <glyph glyph-name="atilde.alt" horiz-adv-x="645" 
d="M264 635q-37 0 -47 -63l-55 9q16 123 101 123q31 0 72.5 -30.5t57.5 -30.5q36 0 47 63l55 -8q-15 -124 -101 -124q-32 0 -73 30.5t-57 30.5zM470 517h99v-517h-99v90q-64 -102 -184 -102q-103 0 -170.5 76t-67.5 195q0 118 67.5 194t170.5 76q120 0 184 -101v89zM310 74
q70 0 115 52t45 133t-45 132.5t-115 51.5q-71 0 -116.5 -51.5t-45.5 -132.5t45.5 -133t116.5 -52z" />
    <glyph glyph-name="ascender" horiz-adv-x="645" 
d="M77 0v699h98v-699h-98z" />
    <glyph glyph-name="descender" horiz-adv-x="645" 
d="M77 -172v689h98v-689h-98z" />
    </font>
</defs>
</svg>
